<?xml version="1.0" standalone="no"?>
<!DOCTYPE svg PUBLIC "-//W3C//DTD SVG 1.1//EN" "http://www.w3.org/Graphics/SVG/1.1/DTD/svg11.dtd" >
<svg xmlns="http://www.w3.org/2000/svg" xmlns:xlink="http://www.w3.org/1999/xlink" version="1.1">
<metadata>
Created by FontForge 20170731 at Fri Sep 10 13:16:29 2021
 By Aleksey,,,
Copyright (c) 2015 by Colophon Foundry. All rights reserved.
</metadata>
<defs>
<font id="BasisGrotesquePro-Bold" horiz-adv-x="1216" >
  <font-face 
    font-family="Basis Grotesque Pro"
    font-weight="700"
    font-stretch="normal"
    units-per-em="2048"
    panose-1="2 0 8 3 3 0 0 2 0 4"
    ascent="1638"
    descent="-410"
    x-height="1016"
    cap-height="1434"
    bbox="-106 -643 2290 1913"
    underline-thickness="102"
    underline-position="-307"
    unicode-range="U+000D-FB04"
  />
<missing-glyph horiz-adv-x="1024" 
 />
    <glyph glyph-name="ff" unicode="ff" horiz-adv-x="1282" 
d="M444 807v-807h-258v807h-147v209h147v143q0 183 99 280t262 97q67 0 129 -23l-45 -227q-37 12 -72 12q-115 0 -115 -133v-149h324v143q0 183 98.5 280t261.5 97q67 0 129 -23l-45 -227q-37 12 -71 12q-115 0 -115 -133v-149h221v-209h-221v-807h-258v807h-324z" />
    <glyph glyph-name="fi" unicode="fi" horiz-adv-x="1212" 
d="M827 0v807h-383v-807h-258v807h-147v209h147v143q0 183 99 280t262 97q67 0 129 -23l-45 -227q-37 12 -72 12q-115 0 -115 -133v-149h641v-1016h-258zM815 1163v271h283v-271h-283z" />
    <glyph glyph-name="fl" unicode="fl" horiz-adv-x="1214" 
d="M39 807v209h147v143q0 183 99 280t262 97q67 0 129 -23l-45 -227q-37 12 -72 12q-115 0 -115 -133v-149h222v-209h-222v-807h-258v807h-147zM827 0v1434h258v-1434h-258z" />
    <glyph glyph-name="f_f_i" unicode="ffi" horiz-adv-x="1794" 
d="M1409 0v807h-383v-807h-258v807h-324v-807h-258v807h-147v209h147v143q0 183 99 280t262 97q67 0 129 -23l-45 -227q-37 12 -72 12q-115 0 -115 -133v-149h324v143q0 183 98.5 280t261.5 97q67 0 129 -23l-45 -227q-37 12 -71 12q-115 0 -115 -133v-149h641v-1016h-258z
M1397 1163v271h282v-271h-282z" />
    <glyph glyph-name="f_f_l" unicode="ffl" horiz-adv-x="1796" 
d="M39 807v209h147v143q0 183 99 280t262 97q67 0 129 -23l-45 -227q-37 12 -72 12q-115 0 -115 -133v-149h324v143q0 183 98.5 280t261.5 97q67 0 129 -23l-45 -227q-37 12 -71 12q-115 0 -115 -133v-149h221v-209h-221v-807h-258v807h-324v-807h-258v807h-147zM1409 0
v1434h258v-1434h-258z" />
    <glyph glyph-name="f_j" unicode="fj" horiz-adv-x="1212" 
d="M600 -412l33 234q46 -17 80 -17q61 0 87.5 36t26.5 110v856h-383v-807h-258v807h-147v209h147v143q0 183 99 280t262 97q67 0 129 -23l-45 -227q-37 12 -72 12q-115 0 -115 -133v-149h641v-1094q0 -172 -83 -263t-248 -91q-76 0 -154 20zM815 1163v271h283v-271h-283z
" />
    <glyph glyph-name="f_f_j" unicode="ffj" horiz-adv-x="1794" 
d="M39 807v209h147v143q0 183 99 280t262 97q67 0 129 -23l-45 -227q-37 12 -72 12q-115 0 -115 -133v-149h324v143q0 183 98.5 280t261.5 97q67 0 129 -23l-45 -227q-37 12 -71 12q-115 0 -115 -133v-149h641v-1094q0 -172 -83.5 -263t-248.5 -91q-75 0 -153 20l32 234
q46 -17 80 -17q61 0 88 36t27 110v856h-383v-807h-258v807h-324v-807h-258v807h-147zM1397 1163v271h282v-271h-282z" />
    <glyph glyph-name=".notdef" horiz-adv-x="1024" 
 />
    <glyph glyph-name=".null" horiz-adv-x="0" 
 />
    <glyph glyph-name="nonmarkingreturn" horiz-adv-x="682" 
 />
    <glyph glyph-name="NULL" horiz-adv-x="0" 
 />
    <glyph glyph-name="NULL" horiz-adv-x="0" 
 />
    <glyph glyph-name="CR" unicode="&#xd;" horiz-adv-x="591" 
 />
    <glyph glyph-name="space" unicode=" " horiz-adv-x="565" 
 />
    <glyph glyph-name="exclam" unicode="!" horiz-adv-x="569" 
d="M150 936v498h270v-498l-33 -510h-205zM150 0v283h270v-283h-270z" />
    <glyph glyph-name="quotedbl" unicode="&#x22;" horiz-adv-x="806" 
d="M104 1272v162h246v-162l-26 -342h-193zM457 1272v162h245v-162l-26 -342h-193z" />
    <glyph glyph-name="numbersign" unicode="#" horiz-adv-x="1363" 
d="M1176 1434l-78 -418h182v-193h-217l-39 -213h215v-192h-250l-76 -418h-225l76 418h-264l-78 -418h-225l77 418h-182v192h217l39 213h-215v193h250l76 418h225l-76 -418h264l78 418h226zM573 823l-38 -213h264l39 213h-265z" />
    <glyph glyph-name="dollar" unicode="$" horiz-adv-x="1335" 
d="M573 -205v185q-203 28 -323.5 148t-159.5 302l238 121q49 -271 245 -328v422q-195 44 -308 149.5t-113 274.5q0 160 114 264.5t307 124.5v180h213v-188q304 -54 416 -356l-213 -123q-58 178 -203 237v-362q225 -52 333 -156t108 -278q0 -163 -120 -287t-321 -148v-182
h-213zM956 401q0 66 -42 112t-128 77v-371q79 19 124.5 67t45.5 115zM410 1075q0 -60 38.5 -101t124.5 -73v326q-163 -27 -163 -152z" />
    <glyph glyph-name="percent" unicode="%" horiz-adv-x="1792" 
d="M88 1104q0 154 100.5 256t255.5 102t256 -102t101 -256t-101 -256.5t-256 -102.5t-255.5 102.5t-100.5 256.5zM276 1104q0 -81 47.5 -131.5t120.5 -50.5t120.5 50.5t47.5 131.5t-47.5 131.5t-120.5 50.5t-120.5 -50.5t-47.5 -131.5zM991 330q0 154 101 256t256 102
t255.5 -102t100.5 -256t-100.5 -256.5t-255.5 -102.5t-256 102.5t-101 256.5zM1180 330q0 -81 47.5 -132t120.5 -51t120.5 51t47.5 132t-47.5 131.5t-120.5 50.5t-120.5 -50.5t-47.5 -131.5zM524 -14l-147 100l891 1362l147 -100z" />
    <glyph glyph-name="ampersand" unicode="&#x26;" horiz-adv-x="1357" 
d="M1286 0h-295l-63 84q-151 -113 -363 -113q-203 0 -332 124t-129 323q0 98 38.5 180t94 135.5t136.5 104.5q-90 147 -90 274q0 157 102.5 253.5t257.5 96.5q157 0 253.5 -81t96.5 -216q0 -223 -305 -379l262 -344q60 123 86 287l201 -115q-54 -219 -145 -358zM604 197
q106 0 197 59l-309 416q-68 -55 -99 -111.5t-31 -130.5q0 -103 68.5 -168t173.5 -65zM508 1120q0 -82 65 -182q113 55 158 101t45 104t-38 90.5t-95 32.5q-58 0 -96.5 -38t-38.5 -108z" />
    <glyph glyph-name="quotesingle" unicode="'" horiz-adv-x="454" 
d="M104 1272v162h246v-162l-26 -342h-193z" />
    <glyph glyph-name="parenleft" unicode="(" horiz-adv-x="737" 
d="M582 -303h-232q-221 398 -221 868q0 471 221 869h232q-83 -151 -137 -402t-54 -467q0 -217 53.5 -469.5t137.5 -398.5z" />
    <glyph glyph-name="parenright" unicode=")" horiz-adv-x="737" 
d="M387 -303h-231q84 146 137 398.5t53 469.5q0 216 -53.5 467.5t-136.5 401.5h231q221 -398 221 -869q0 -470 -221 -868z" />
    <glyph glyph-name="asterisk" unicode="*" horiz-adv-x="897" 
d="M559 1434l-41 -226l174 150l111 -193l-217 -75l217 -76l-111 -193l-174 150l41 -226h-221l41 226l-174 -150l-111 193l217 76l-217 75l111 193l174 -150l-41 226h221z" />
    <glyph glyph-name="plus" unicode="+" horiz-adv-x="1155" 
d="M82 643v209h391v391h209v-391h391v-209h-391v-391h-209v391h-391z" />
    <glyph glyph-name="comma" unicode="," horiz-adv-x="438" 
d="M82 0v274h274v-274l-200 -309l-60 22l78 287h-92z" />
    <glyph glyph-name="hyphen" unicode="-" horiz-adv-x="958" 
d="M82 532v209h795v-209h-795z" />
    <glyph glyph-name="period" unicode="." horiz-adv-x="438" 
d="M82 0v274h274v-274h-274z" />
    <glyph glyph-name="slash" unicode="/" horiz-adv-x="1101" 
d="M10 -61l819 1556h263l-820 -1556h-262z" />
    <glyph glyph-name="zero" unicode="0" horiz-adv-x="1478" 
d="M1386 717q0 -335 -181 -540.5t-466 -205.5t-466 205.5t-181 540.5t181 540t466 205t466 -205t181 -540zM739 221q169 0 273 133t104 363t-104 362.5t-273 132.5t-273 -132.5t-104 -362.5t104 -363t273 -133z" />
    <glyph glyph-name="one" unicode="1" horiz-adv-x="806" 
d="M94 1004v249q121 0 195 44t123 137h254v-1434h-271v1100q-57 -57 -125.5 -76.5t-175.5 -19.5z" />
    <glyph glyph-name="two" unicode="2" horiz-adv-x="1200" 
d="M96 193l545 534q92 90 130 154t38 139q0 93 -58.5 149t-160.5 56q-100 0 -161.5 -54t-61.5 -149q0 -49 18 -98l-262 -50q-27 68 -27 162q0 84 34.5 160.5t96.5 136t156.5 94.5t206.5 35q230 0 355.5 -114.5t125.5 -296.5q0 -141 -54.5 -246.5t-195.5 -241.5l-321 -313
h571v-250h-975v193z" />
    <glyph glyph-name="three" unicode="3" horiz-adv-x="1232" 
d="M125 537l256 -62q-8 -19 -8 -59q0 -98 67 -156.5t176 -58.5q114 0 183 59t69 168q0 123 -100 180.5t-266 57.5v200q148 0 227.5 54t79.5 153q0 76 -54.5 122t-146.5 46q-93 0 -151 -44.5t-58 -121.5q0 -39 13 -69l-250 -56q-21 65 -21 113q0 79 32.5 150.5t91 127
t148.5 88.5t197 33q226 0 343.5 -96.5t117.5 -255.5q0 -113 -58 -197.5t-153 -124.5q123 -40 201 -131t78 -229q0 -208 -145.5 -332.5t-377.5 -124.5q-123 0 -222.5 36t-162 97t-96 139.5t-33.5 166.5q0 70 23 127z" />
    <glyph glyph-name="four" unicode="4" horiz-adv-x="1257" 
d="M84 238v249l698 947h271v-947h145v-249h-145v-238h-271v238h-698zM782 1053l-411 -566h411v566z" />
    <glyph glyph-name="five" unicode="5" horiz-adv-x="1247" 
d="M113 651l67 783h889v-250h-700l-35 -330q58 62 145 93.5t174 31.5q242 0 374 -131.5t132 -355.5q0 -109 -40 -205t-110.5 -165.5t-174 -110t-224.5 -40.5q-118 0 -216.5 34t-161.5 91t-97.5 130.5t-34.5 154.5q0 61 21 113l258 -62q-8 -19 -8 -53q0 -85 66 -131.5
t175 -46.5q126 0 201.5 76.5t75.5 214.5q0 128 -76 203t-201 75q-87 0 -162 -45t-126 -129z" />
    <glyph glyph-name="six" unicode="6" horiz-adv-x="1267" 
d="M1104 991l-250 53q14 32 14 68q0 69 -52 105t-136 36q-74 0 -134 -37.5t-100 -102.5t-64.5 -147t-33.5 -178q66 69 155.5 109.5t190.5 40.5q215 0 352.5 -134t137.5 -343t-152.5 -349.5t-380.5 -140.5q-257 0 -408 175.5t-151 486.5q0 265 84 471q72 173 202 265.5
t302 92.5q204 0 325 -99t121 -257q0 -60 -22 -115zM647 717q-117 0 -194.5 -70t-77.5 -192q0 -121 77.5 -191.5t194.5 -70.5t196 70.5t79 191.5q0 122 -79 192t-196 70z" />
    <glyph glyph-name="seven" unicode="7" horiz-adv-x="1116" 
d="M1040 1196l-536 -1196h-271l533 1184h-692v250h966v-238z" />
    <glyph glyph-name="eight" unicode="8" 
d="M608 -29q-236 0 -375 116.5t-139 309.5q0 130 65 226.5t181 144.5q-203 102 -203 317q0 166 130.5 271.5t340.5 105.5t340.5 -105.5t130.5 -271.5q0 -215 -202 -317q116 -48 180.5 -144.5t64.5 -226.5q0 -193 -139 -309.5t-375 -116.5zM608 193q109 0 180.5 64t71.5 163
t-71.5 163t-180.5 64t-180.5 -64t-71.5 -163t71.5 -163t180.5 -64zM395 1067q0 -92 62.5 -145.5t150.5 -53.5t150.5 53.5t62.5 145.5t-62 143.5t-151 51.5t-151 -51.5t-62 -143.5z" />
    <glyph glyph-name="nine" unicode="9" horiz-adv-x="1288" 
d="M174 442l254 -55q-14 -38 -14 -65q0 -68 57.5 -105t142.5 -37q135 0 221 122t103 343q-49 -66 -132 -107.5t-198 -41.5q-225 0 -365.5 133.5t-140.5 343.5q0 211 150 350t383 139q274 0 416.5 -170.5t142.5 -490.5q0 -263 -86 -482q-66 -168 -195.5 -258t-306.5 -90
q-214 0 -332 101.5t-118 261.5q0 52 18 108zM641 717q111 0 190.5 71t79.5 191t-79.5 191t-190.5 71q-113 0 -194.5 -71.5t-81.5 -190.5t81.5 -190.5t194.5 -71.5z" />
    <glyph glyph-name="colon" unicode=":" horiz-adv-x="438" 
d="M82 717v274h274v-274h-274zM82 0v274h274v-274h-274z" />
    <glyph glyph-name="semicolon" unicode=";" horiz-adv-x="438" 
d="M82 717v274h274v-274h-274zM82 0v274h274v-274l-206 -332l-60 23l84 309h-92z" />
    <glyph glyph-name="less" unicode="&#x3c;" horiz-adv-x="1077" 
d="M82 535v200l895 439v-254l-612 -285l612 -285v-256z" />
    <glyph glyph-name="equal" unicode="=" horiz-adv-x="1155" 
d="M82 397v209h991v-209h-991zM82 807v209h991v-209h-991z" />
    <glyph glyph-name="greater" unicode="&#x3e;" horiz-adv-x="1077" 
d="M995 735v-200l-895 -441v256l613 285l-613 285v254z" />
    <glyph glyph-name="question" unicode="?" horiz-adv-x="1124" 
d="M672 426h-258v33q0 95 37.5 163t138.5 148q103 85 145.5 147t42.5 138q0 79 -59 126.5t-154 47.5q-98 0 -164.5 -55t-66.5 -148q0 -44 14 -76l-235 -49q-29 63 -29 148q0 77 33.5 151t93 132.5t150.5 94t198 35.5q219 0 346 -107t127 -282q0 -124 -55 -216t-209 -224
q-55 -46 -75.5 -92t-20.5 -115zM408 0v283h270v-283h-270z" />
    <glyph glyph-name="at" unicode="@" horiz-adv-x="1961" 
d="M1335 -10l99 -166q-108 -69 -222 -102t-274 -33q-133 0 -255.5 31.5t-230.5 100t-187.5 167.5t-126 243.5t-46.5 319.5q0 186 70 353.5t191.5 290.5t297 195t377.5 72q130 0 250.5 -29t227 -90.5t185 -150t124 -215.5t45.5 -279q0 -182 -68 -330t-184.5 -230.5
t-255.5 -82.5q-92 0 -146.5 42t-54.5 114q0 11 2 25q-47 -79 -128 -130t-185 -51q-169 0 -271 121t-102 318q0 141 47 260.5t121.5 194t163 116t176.5 41.5q190 0 258 -133l16 100h197l-115 -741q-2 -18 -2 -33q0 -70 64 -70q94 0 171.5 126t77.5 341q0 126 -38.5 230
t-114.5 182.5t-197 122t-278 43.5q-143 0 -272.5 -54.5t-225 -150.5t-151.5 -234.5t-56 -297.5q0 -158 51 -285.5t139 -208t202 -123.5t245 -43q129 0 219.5 29.5t169.5 83.5zM870 229q127 0 220.5 129t93.5 330q0 240 -183 240q-125 0 -221 -130t-96 -317q0 -122 52 -187
t134 -65z" />
    <glyph glyph-name="A" unicode="A" horiz-adv-x="1437" 
d="M10 0l580 1434h258l579 -1434h-288l-144 375h-553l-143 -375h-289zM666 961l-131 -345h368l-131 345l-16 45l-37 110l-37 -110z" />
    <glyph glyph-name="B" unicode="B" horiz-adv-x="1351" 
d="M150 0v1434h589q221 0 340 -92t119 -259q0 -104 -57 -184.5t-142 -120.5q258 -104 258 -348q0 -132 -69.5 -231t-183.5 -149t-254 -50h-600zM420 639v-397h313q254 0 254 198q0 199 -254 199h-313zM420 1196v-319h299q115 0 166 38.5t51 120.5q0 83 -51.5 121.5
t-165.5 38.5h-299z" />
    <glyph glyph-name="C" unicode="C" horiz-adv-x="1572" 
d="M1264 508l211 -152q-69 -103 -132.5 -172t-140.5 -118.5t-168 -72t-207 -22.5q-209 0 -375.5 92t-262 263t-95.5 391t98.5 391t267.5 262.5t378 91.5q221 0 386.5 -103t241.5 -272l-219 -157q-68 141 -169 211.5t-249 70.5q-94 0 -178 -35t-146.5 -98t-99 -157
t-36.5 -205q0 -218 132.5 -357t327.5 -139q281 0 435 287z" />
    <glyph glyph-name="D" unicode="D" horiz-adv-x="1456" 
d="M150 0v1434h432q171 0 312.5 -45t246.5 -132t163 -225t58 -315t-58 -315t-163 -225t-246.5 -132t-312.5 -45h-432zM420 250h180q225 0 356 119t131 348q0 226 -131.5 346.5t-355.5 120.5h-180v-934z" />
    <glyph glyph-name="E" unicode="E" horiz-adv-x="1259" 
d="M150 0v1434h989v-242h-719v-330h661v-241h-661v-379h725v-242h-995z" />
    <glyph glyph-name="F" unicode="F" horiz-adv-x="1265" 
d="M150 0v1434h1013v-242h-743v-371h682v-241h-682v-580h-270z" />
    <glyph glyph-name="G" unicode="G" horiz-adv-x="1597" 
d="M1298 0l-57 197q-145 -226 -436 -226q-148 0 -279 56t-226 153t-150.5 237t-55.5 300t59 299.5t159 237t237 153t289 55.5q213 0 378 -94t248 -256l-202 -147q-65 128 -175.5 194t-252.5 66q-95 0 -179.5 -36t-148 -100.5t-100.5 -160.5t-37 -211q0 -219 126 -357.5
t318 -138.5q175 0 273 91t120 233h-463v221h734v-766h-179z" />
    <glyph glyph-name="H" unicode="H" horiz-adv-x="1466" 
d="M150 0v1434h270v-578h627v578h270v-1434h-270v606h-627v-606h-270z" />
    <glyph glyph-name="I" unicode="I" horiz-adv-x="569" 
d="M150 0v1434h270v-1434h-270z" />
    <glyph glyph-name="J" unicode="J" horiz-adv-x="1136" 
d="M1024 1434v-996q0 -208 -124 -337.5t-345 -129.5q-222 0 -345.5 127.5t-123.5 360.5l270 -29q2 -106 49.5 -157.5t149.5 -51.5q96 0 147.5 60t51.5 161v992h270z" />
    <glyph glyph-name="K" unicode="K" horiz-adv-x="1347" 
d="M1276 1434l-508 -533l541 -901h-316l-420 700l-153 -161v-539h-270v1434h270v-553l74 82q8 8 22 25.5t16 19.5l402 426h342z" />
    <glyph glyph-name="L" unicode="L" horiz-adv-x="1222" 
d="M150 0v1434h270v-1184h719v-250h-989z" />
    <glyph glyph-name="M" unicode="M" horiz-adv-x="1781" 
d="M150 0v1434h284l457 -1139l457 1139h284v-1434h-262v877l-39 -123l-31 -97l-280 -657h-258l-281 657l-30 97l-39 123v-877h-262z" />
    <glyph glyph-name="N" unicode="N" horiz-adv-x="1495" 
d="M150 0v1434h274l598 -912q6 -9 27 -45q23 -40 34 -67v1024h263v-1434h-275l-598 918q-6 9 -27 45q-27 48 -34 67v-1030h-262z" />
    <glyph glyph-name="O" unicode="O" horiz-adv-x="1662" 
d="M1569 717q0 -211 -96.5 -382t-265.5 -267.5t-376 -96.5q-155 0 -292 57t-234.5 155.5t-154 237t-56.5 296.5q0 211 96 381.5t265 267t376 96.5t376 -96.5t265.5 -267t96.5 -381.5zM831 221q200 0 331.5 135t131.5 361t-131.5 360.5t-331.5 134.5t-331 -134.5t-131 -360.5
q0 -227 131 -361.5t331 -134.5z" />
    <glyph glyph-name="P" unicode="P" horiz-adv-x="1429" 
d="M150 0v1434h651q247 0 391.5 -122.5t144.5 -344.5t-144.5 -344.5t-391.5 -122.5h-381v-500h-270zM420 1192v-451h373q137 0 205.5 60t68.5 166t-68.5 165.5t-205.5 59.5h-373z" />
    <glyph glyph-name="Q" unicode="Q" horiz-adv-x="1662" 
d="M1569 717q0 -240 -121 -423t-326 -267q52 -87 176 -195l-194 -174q-143 143 -242 313h-31q-155 0 -292 57t-234.5 155.5t-154 237t-56.5 296.5q0 211 96 381.5t265 267t376 96.5t376 -96.5t265.5 -267t96.5 -381.5zM831 221q200 0 331.5 135t131.5 361t-131.5 360.5
t-331.5 134.5t-331 -134.5t-131 -360.5q0 -227 131 -361.5t331 -134.5z" />
    <glyph glyph-name="R" unicode="R" horiz-adv-x="1366" 
d="M981 0l-332 582h-229v-582h-270v1434h612q236 0 373 -110t137 -296q0 -302 -328 -422l346 -606h-309zM420 1196v-377h342q121 0 180 50t59 139t-59 138.5t-180 49.5h-342z" />
    <glyph glyph-name="S" unicode="S" horiz-adv-x="1335" 
d="M412 1075q0 -83 81.5 -134.5t264.5 -88.5q239 -50 354 -155t115 -285q0 -184 -146.5 -312.5t-388.5 -128.5q-255 0 -406.5 125.5t-195.5 333.5l238 121q31 -167 117.5 -254.5t244.5 -87.5q122 0 194 52.5t72 139.5q0 95 -85 148t-269 90q-205 39 -326.5 147.5
t-121.5 282.5q0 178 139 285.5t364 107.5q411 0 545 -368l-213 -123q-85 254 -338 254q-102 0 -170.5 -38.5t-68.5 -111.5z" />
    <glyph glyph-name="T" unicode="T" horiz-adv-x="1212" 
d="M33 1184v250h1147v-250h-439v-1184h-270v1184h-438z" />
    <glyph glyph-name="U" unicode="U" horiz-adv-x="1433" 
d="M1305 1434v-891q0 -179 -77.5 -310t-209 -196.5t-301.5 -65.5t-301.5 65.5t-209 196.5t-77.5 310v891h270v-865q0 -166 84.5 -257t233.5 -91t233 91t84 257v865h271z" />
    <glyph glyph-name="V" unicode="V" horiz-adv-x="1347" 
d="M537 0l-533 1434h293l324 -916l18 -63q19 -75 35 -119q5 19 17.5 59.5t17.5 59.5l18 63l324 916h292l-532 -1434h-274z" />
    <glyph glyph-name="W" unicode="W" horiz-adv-x="1929" 
d="M406 0l-396 1434h285l227 -906q7 -35 15 -59q4 -18 10.5 -51.5t9.5 -44.5q3 11 10 45.5t11 52.5q6 17 14 59l233 904h279l233 -904q7 -35 15 -59q4 -18 10.5 -52.5t9.5 -45.5q3 11 10 44.5t11 51.5q5 16 14 59l227 906h285l-395 -1434h-291l-268 1040l-269 -1040h-290z
" />
    <glyph glyph-name="X" unicode="X" horiz-adv-x="1263" 
d="M358 1434l273 -455l287 455h274l-410 -654l473 -780h-288l-336 553l-334 -553h-291l479 770l-415 664h288z" />
    <glyph glyph-name="Y" unicode="Y" horiz-adv-x="1232" 
d="M752 561v-561h-271v561l-473 873h297l266 -510q3 -6 9 -19t8 -16l28 -70q4 13 14.5 36.5t14.5 33.5q2 3 8 16t9 19l266 510h297z" />
    <glyph glyph-name="Z" unicode="Z" horiz-adv-x="1257" 
d="M98 1184v250h1049v-250l-750 -934h785v-250h-1110v246l753 938h-727z" />
    <glyph glyph-name="bracketleft" unicode="[" horiz-adv-x="710" 
d="M150 -307v1741h468v-242h-210v-1258h210v-241h-468z" />
    <glyph glyph-name="backslash" unicode="\" horiz-adv-x="1101" 
d="M272 1495l820 -1556h-263l-819 1556h262z" />
    <glyph glyph-name="bracketright" unicode="]" horiz-adv-x="710" 
d="M561 1434v-1741h-469v241h211v1258h-211v242h469z" />
    <glyph glyph-name="asciicircum" unicode="^" horiz-adv-x="1019" 
d="M397 1434h226l360 -553h-246l-227 352l-227 -352h-246z" />
    <glyph glyph-name="underscore" unicode="_" horiz-adv-x="1048" 
d="M14 -223v209h1020v-209h-1020z" />
    <glyph glyph-name="grave" unicode="`" horiz-adv-x="665" 
d="M420 1450l139 -324h-199l-254 324h314z" />
    <glyph glyph-name="a" unicode="a" horiz-adv-x="1161" 
d="M1081 0h-262q-49 70 -49 162q-107 -191 -340 -191q-152 0 -247 87t-95 231q0 75 29.5 135.5t81 100.5t115 64.5t137.5 35.5l305 47v39q0 74 -47 113.5t-140 39.5q-87 0 -134.5 -32t-47.5 -82q0 -16 4 -25l-231 -78q-19 43 -19 86q0 126 116.5 218.5t311.5 92.5
q218 0 331.5 -92t113.5 -276v-424q0 -87 15 -142t52 -110zM492 180q117 0 190.5 76t73.5 219v19l-246 -41q-170 -27 -170 -150q0 -60 41 -91.5t111 -31.5z" />
    <glyph glyph-name="b" unicode="b" horiz-adv-x="1277" 
d="M129 0v1434h258v-543q57 72 144.5 112.5t189.5 40.5q101 0 189.5 -36.5t154 -104t103.5 -169.5t38 -226t-38.5 -226t-105.5 -169.5t-155.5 -104.5t-189.5 -37q-215 0 -330 154v-125h-258zM657 213q125 0 206 83t81 212t-81 212t-206 83t-205.5 -83t-80.5 -212t80.5 -212
t205.5 -83z" />
    <glyph glyph-name="c" unicode="c" horiz-adv-x="1146" 
d="M872 399l209 -135q-71 -145 -192.5 -219t-282.5 -74q-150 0 -271.5 66t-192 189t-70.5 282q0 158 73.5 281.5t194.5 189t266 65.5q169 0 290 -72.5t175 -203.5l-211 -139q-78 174 -256 174q-117 0 -193.5 -81t-76.5 -214q0 -134 75.5 -214.5t194.5 -80.5q99 0 161 45.5
t107 140.5z" />
    <glyph glyph-name="d" unicode="d" horiz-adv-x="1277" 
d="M1149 1434v-1434h-258v143q-44 -77 -126.5 -124.5t-193.5 -47.5q-105 0 -196 37t-158.5 104.5t-106 169.5t-38.5 226q0 99 28 185.5t76 149.5t111.5 109t136 69t147.5 23q229 0 320 -153v543h258zM621 213q123 0 204.5 83t81.5 212t-81.5 212t-204.5 83
q-124 0 -205.5 -83.5t-81.5 -211.5t81.5 -211.5t205.5 -83.5z" />
    <glyph glyph-name="e" unicode="e" horiz-adv-x="1177" 
d="M1102 446h-783q12 -117 87.5 -185t191.5 -68q101 0 168.5 47.5t112.5 138.5l192 -111q-73 -151 -189 -224t-288 -73q-141 0 -260 67t-190.5 191t-71.5 279q0 156 72 279.5t193.5 190t268.5 66.5q217 0 356.5 -143t139.5 -364v-91zM598 848q-101 0 -175 -59.5t-104 -153.5
h545q-19 100 -88 156.5t-178 56.5z" />
    <glyph glyph-name="f" unicode="f" horiz-adv-x="700" 
d="M39 807v209h147v143q0 183 99 280t262 97q67 0 129 -23l-45 -227q-37 12 -72 12q-115 0 -115 -133v-149h222v-209h-222v-807h-258v807h-147z" />
    <glyph glyph-name="g" unicode="g" horiz-adv-x="1222" 
d="M141 18l246 -75q-12 -35 -12 -70q0 -52 59 -83.5t166 -31.5q250 0 250 279v131q-42 -69 -114.5 -110.5t-174.5 -41.5q-133 0 -244.5 64.5t-178 183t-66.5 266.5q0 111 40 208t107 163.5t156.5 104.5t187.5 38q190 0 287 -139v111h258v-946q0 -253 -137 -384.5
t-371 -131.5q-229 0 -358 92t-129 256q0 62 28 116zM590 819q-113 0 -190.5 -77t-77.5 -212t77.5 -211.5t190.5 -76.5q114 0 194 76.5t80 211.5t-80 212t-194 77z" />
    <glyph glyph-name="h" unicode="h" horiz-adv-x="1228" 
d="M1100 686v-686h-258v586q0 102 -52 159.5t-153 57.5q-110 0 -180 -79.5t-70 -207.5v-516h-258v1434h258v-578q57 91 148 139.5t204 48.5q165 0 263 -97.5t98 -260.5z" />
    <glyph glyph-name="i" unicode="i" horiz-adv-x="512" 
d="M127 0v1016h258v-1016h-258zM115 1163v271h282v-271h-282z" />
    <glyph glyph-name="j" unicode="j" horiz-adv-x="512" 
d="M-100 -412l32 234q46 -17 80 -17q61 0 88 36t27 110v1065h258v-1094q0 -172 -83.5 -263t-248.5 -91q-75 0 -153 20zM115 1163v271h282v-271h-282z" />
    <glyph glyph-name="k" unicode="k" horiz-adv-x="1107" 
d="M387 1434v-725l309 307h320l-371 -363l420 -653h-297l-303 475l-78 -76v-399h-258v1434h258z" />
    <glyph glyph-name="l" unicode="l" horiz-adv-x="516" 
d="M129 0v1434h258v-1434h-258z" />
    <glyph glyph-name="m" unicode="m" horiz-adv-x="1744" 
d="M1616 711v-711h-258v629q0 94 -38 142t-122 48q-89 0 -143 -65t-54 -189v-565h-258v625q0 194 -163 194q-80 0 -136.5 -66.5t-56.5 -183.5v-569h-258v1016h258v-135q54 83 132 123t163 40q214 0 283 -174q53 87 138.5 130.5t184.5 43.5q157 0 242.5 -89t85.5 -244z" />
    <glyph glyph-name="n" unicode="n" 
d="M1087 692v-692h-258v586q0 217 -206 217q-104 0 -170 -79.5t-66 -207.5v-516h-258v1016h258v-164q58 90 147 141t197 51q164 0 260 -96t96 -256z" />
    <glyph glyph-name="o" unicode="o" horiz-adv-x="1253" 
d="M1182 508q0 -103 -31 -191.5t-84 -151t-124 -107t-151 -66t-165 -21.5t-165 21.5t-151 66t-124 107t-84 151t-31 191.5t31 191t84 151t124 107t151 65.5t165 21.5t165 -21.5t151 -65.5t124 -107t84 -151t31 -191zM627 213q120 0 206.5 80t86.5 215t-86.5 215t-206.5 80
t-206.5 -80t-86.5 -215t86.5 -215t206.5 -80z" />
    <glyph glyph-name="p" unicode="p" horiz-adv-x="1277" 
d="M129 -418v1434h258v-146q54 77 146.5 125.5t205.5 48.5q96 0 180.5 -37t148.5 -104t101 -169.5t37 -225.5q0 -239 -141 -388t-348 -149q-206 0 -330 154v-543h-258zM657 803q-124 0 -205 -85t-81 -210t81 -210t205 -85t205.5 85t81.5 210t-81.5 210t-205.5 85z" />
    <glyph glyph-name="q" unicode="q" horiz-adv-x="1277" 
d="M1149 1016v-1434h-258v553q-104 -164 -328 -164q-96 0 -184.5 38.5t-157 107t-109 170.5t-40.5 221q0 123 42 226t111.5 169.5t157 103.5t180.5 37q116 0 201 -46t127 -128v146h258zM621 803q-124 0 -205.5 -85t-81.5 -210t81.5 -210t205.5 -85t205 85t81 210t-81 210
t-205 85z" />
    <glyph glyph-name="r" unicode="r" horiz-adv-x="786" 
d="M758 1032l-41 -244q-40 15 -84 15q-114 0 -180 -84.5t-66 -216.5v-502h-258v1016h258v-162q93 190 283 190q48 0 88 -12z" />
    <glyph glyph-name="s" unicode="s" horiz-adv-x="1024" 
d="M369 766q0 -94 239 -143q180 -37 260 -111t80 -203q0 -147 -108.5 -242.5t-292.5 -95.5q-92 0 -170 24.5t-134 68.5t-95.5 96.5t-65.5 115.5l207 132q34 -101 100.5 -160.5t161.5 -59.5q65 0 112.5 30t47.5 83q0 49 -50 78t-167 53q-162 32 -258.5 110t-96.5 208
q0 91 54.5 159.5t139 101.5t185.5 33q162 0 259.5 -61.5t160.5 -194.5l-186 -110q-32 85 -92 131.5t-138 46.5q-67 0 -110 -22.5t-43 -67.5z" />
    <glyph glyph-name="t" unicode="t" horiz-adv-x="765" 
d="M49 807v209h158v274h258v-274h221v-209h-221v-463q0 -143 129 -143q40 0 86 12l25 -213q-85 -29 -173 -29q-325 0 -325 324v512h-158z" />
    <glyph glyph-name="u" unicode="u" 
d="M129 385v631h258v-572q0 -231 207 -231q108 0 171.5 77.5t63.5 201.5v524h258v-1016h-258v160q-50 -92 -132 -140.5t-191 -48.5q-166 0 -271.5 109t-105.5 305z" />
    <glyph glyph-name="v" unicode="v" horiz-adv-x="1093" 
d="M1079 1016l-411 -1016h-242l-412 1016h275l258 -688l258 688h274z" />
    <glyph glyph-name="w" unicode="w" horiz-adv-x="1462" 
d="M854 1016l182 -680l164 680h250l-283 -1016h-249l-187 698l-186 -698h-250l-283 1016h250l164 -680l182 680h246z" />
    <glyph glyph-name="x" unicode="x" horiz-adv-x="1017" 
d="M336 1016l170 -273l172 273h299l-318 -473l357 -543h-301l-209 334l-211 -334h-297l371 537l-328 479h295z" />
    <glyph glyph-name="y" unicode="y" horiz-adv-x="1118" 
d="M147 -410l41 240q48 -25 93 -25q42 0 68.5 22.5t45.5 74.5l33 90l-418 1024h293l262 -660l250 660h293l-483 -1200q-53 -132 -134 -190t-202 -58q-81 0 -142 22z" />
    <glyph glyph-name="z" unicode="z" horiz-adv-x="1015" 
d="M371 209h571v-209h-868v209l534 598h-512v209h811v-209z" />
    <glyph glyph-name="braceleft" unicode="{" horiz-adv-x="808" 
d="M98 459v209q79 0 116.5 34.5t37.5 126.5v222q0 204 92 293.5t274 89.5h99v-242h-51q-80 0 -118 -41.5t-38 -136.5v-219q0 -101 -34.5 -152.5t-106.5 -79.5q72 -28 106.5 -79t34.5 -152v-219q0 -95 38 -137t118 -42h51v-241h-99q-182 0 -274 89.5t-92 293.5v221
q0 92 -37.5 127t-116.5 35z" />
    <glyph glyph-name="bar" unicode="|" horiz-adv-x="548" 
d="M150 -225v1741h249v-1741h-249z" />
    <glyph glyph-name="braceright" unicode="}" horiz-adv-x="808" 
d="M711 668v-209q-79 0 -116.5 -35t-37.5 -127v-221q0 -203 -93 -293t-274 -90h-98v241h51q80 0 118 42t38 137v219q0 101 34.5 152t106.5 79q-72 28 -106.5 79.5t-34.5 152.5v219q0 95 -38 136.5t-118 41.5h-51v242h98q181 0 274 -90t93 -293v-222q0 -92 37.5 -126.5
t116.5 -34.5z" />
    <glyph glyph-name="asciitilde" unicode="~" horiz-adv-x="944" 
d="M334 649q-25 0 -40 -13t-15 -38t14 -47l-180 -33q-31 48 -31 109q0 98 61 155.5t156 57.5q55 0 99.5 -13.5t72 -32t50 -37.5t44.5 -32.5t45 -13.5q25 0 40.5 13t15.5 38q0 23 -15 47l180 33q31 -48 31 -113q0 -97 -61 -153t-156 -56q-55 0 -99.5 13.5t-72 32t-50 37.5
t-44.5 32.5t-45 13.5z" />
    <glyph glyph-name="uni00A0" unicode="&#xa0;" horiz-adv-x="565" 
 />
    <glyph glyph-name="exclamdown" unicode="&#xa1;" horiz-adv-x="569" 
d="M420 80v-498h-270v498l32 510h205zM420 1016v-283h-270v283h270z" />
    <glyph glyph-name="cent" unicode="&#xa2;" horiz-adv-x="1165" 
d="M510 -225v207q-190 34 -308 176t-118 350q0 205 120.5 348t305.5 176v238h205v-234q132 -19 226 -88t142 -180l-211 -139q-56 120 -157 157v-559q100 36 170 172l209 -135q-123 -245 -379 -284v-205h-205zM346 508q0 -102 43.5 -174t120.5 -103v551q-76 -32 -120 -103
t-44 -171z" />
    <glyph glyph-name="sterling" unicode="&#xa3;" horiz-adv-x="1177" 
d="M57 813h129q-30 135 -30 213q0 200 136.5 318t350.5 118q218 0 337.5 -106.5t119.5 -268.5q0 -76 -31 -145l-238 41q19 45 19 98q0 71 -56.5 117.5t-156.5 46.5q-101 0 -162 -57t-61 -166q0 -85 30 -209h387v-201h-346q7 -58 7 -104q0 -93 -20.5 -156t-61.5 -127h675
v-225h-962v193q70 75 97.5 140t27.5 165q0 56 -12 114h-179v201z" />
    <glyph glyph-name="currency" unicode="&#xa4;" horiz-adv-x="1335" 
d="M1122 717q0 -136 -65 -244l160 -158l-148 -147l-160 160q-112 -68 -241 -68q-130 0 -242 68l-160 -160l-147 147l160 158q-66 109 -66 244t66 244l-160 157l147 148l160 -160q112 68 242 68q129 0 241 -68l160 160l148 -148l-160 -157q65 -108 65 -244zM668 459
q110 0 177.5 71t67.5 187t-67.5 187t-177.5 71t-178 -71t-68 -187t68 -187t178 -71z" />
    <glyph glyph-name="yen" unicode="&#xa5;" horiz-adv-x="1241" 
d="M186 229v209h299v123h-299v209h191l-348 664h290l252 -510l19 -37l31 -74q6 19 30 74l19 37l252 510h290l-348 -664h191v-209h-299v-123h299v-209h-299v-229h-271v229h-299z" />
    <glyph glyph-name="brokenbar" unicode="&#xa6;" horiz-adv-x="548" 
d="M399 791h-249v725h249v-725zM150 500h249v-725h-249v725z" />
    <glyph glyph-name="section" unicode="&#xa7;" horiz-adv-x="1075" 
d="M115 686q0 117 94 201q-86 86 -86 225q0 161 116 255.5t289 94.5q160 0 274 -75.5t177 -208.5l-174 -127q-87 215 -279 215q-81 0 -133.5 -38t-52.5 -108q0 -143 278 -200q182 -39 262.5 -111t80.5 -205q0 -129 -93 -215q84 -87 84 -229q0 -160 -117 -255t-288 -95
q-165 0 -278 75.5t-173 208.5l174 127q87 -215 279 -215q81 0 133.5 38t52.5 108q0 143 -278 200q-162 33 -252 119t-90 215zM580 524q71 -17 135 -43q41 38 41 86q0 60 -59 103.5t-201 77.5q-69 17 -136 43q-41 -38 -41 -86q0 -60 59.5 -103.5t201.5 -77.5z" />
    <glyph glyph-name="dieresis" unicode="&#xa8;" horiz-adv-x="847" 
d="M487 1180v254h242v-254h-242zM119 1180v254h241v-254h-241z" />
    <glyph glyph-name="copyright" unicode="&#xa9;" horiz-adv-x="1695" 
d="M102 717q0 152 59 290.5t159 238t238 158t290 58.5q150 0 288 -58.5t238 -158t159.5 -238t59.5 -290.5q0 -203 -100.5 -375t-272 -271.5t-372.5 -99.5q-203 0 -374.5 99.5t-271.5 271t-100 375.5zM283 717q0 -155 75 -286t205 -207.5t285 -76.5t285 76.5t205 207.5
t75 286t-75 286t-205 207t-285 76t-285 -76t-205 -207t-75 -286zM1059 633l162 -107q-55 -112 -149.5 -169.5t-219.5 -57.5q-181 0 -299.5 115.5t-118.5 302.5q0 184 123 301t295 117q131 0 225 -56t135 -159l-163 -109q-63 135 -199 135q-92 0 -151.5 -62.5t-59.5 -166.5
q0 -105 59 -167.5t152 -62.5q74 0 123 36.5t86 109.5z" />
    <glyph glyph-name="ordfeminine" unicode="&#xaa;" horiz-adv-x="811" 
d="M774 614h-184q-31 31 -31 113q-80 -127 -235 -127q-105 0 -172.5 61t-67.5 160q0 102 79 161t199 79l189 31v18q0 107 -131 107q-61 0 -97 -21.5t-36 -54.5q0 -13 2 -19l-164 -59q-12 27 -12 59q0 89 82 156.5t225 67.5q159 0 234 -63t75 -193v-295q0 -119 45 -181z
M369 748q83 0 132.5 52.5t49.5 143.5v19l-172 -27q-119 -17 -119 -100q0 -42 30 -65t79 -23z" />
    <glyph glyph-name="guillemotleft" unicode="&#xab;" 
d="M866 999h289l-340 -436l340 -436h-289l-342 436zM424 999h289l-340 -436l340 -436h-289l-342 436z" />
    <glyph glyph-name="logicalnot" unicode="&#xac;" horiz-adv-x="1124" 
d="M995 356h-241v287h-672v209h913v-496z" />
    <glyph glyph-name="registered" unicode="&#xae;" horiz-adv-x="1695" 
d="M969 309l-187 314h-55v-314h-180v815h334q145 0 220 -68.5t75 -183.5q0 -91 -54.5 -155t-148.5 -88l194 -320h-198zM727 973v-203h147q127 0 127 102q0 101 -127 101h-147zM102 717q0 152 59 290.5t159 238t238 158t290 58.5q150 0 288 -58.5t238 -158t159.5 -238
t59.5 -290.5q0 -203 -100.5 -375t-272 -271.5t-372.5 -99.5q-203 0 -374.5 99.5t-271.5 271t-100 375.5zM283 717q0 -155 75 -286t205 -207.5t285 -76.5t285 76.5t205 207.5t75 286t-75 286t-205 207t-285 76t-285 -76t-205 -207t-75 -286z" />
    <glyph glyph-name="macron" unicode="&#xaf;" horiz-adv-x="671" 
d="M82 1204v193h508v-193h-508z" />
    <glyph glyph-name="degree" unicode="&#xb0;" horiz-adv-x="724" 
d="M76 1178q0 119 82 201.5t204 82.5t204.5 -82.5t82.5 -201.5t-82.5 -202t-204.5 -83t-204 83t-82 202zM240 1178q0 -55 33.5 -90t88.5 -35t89 35t34 90t-34 90t-89 35t-88.5 -35t-33.5 -90z" />
    <glyph glyph-name="plusminus" unicode="&#xb1;" horiz-adv-x="1177" 
d="M92 766v209h391v391h209v-391h391v-209h-391v-391h-209v391h-391zM92 0v209h991v-209h-991z" />
    <glyph glyph-name="twosuperior" unicode="&#xb2;" horiz-adv-x="694" 
d="M109 825l270 260q72 66 72 134q0 41 -23.5 62.5t-65.5 21.5q-41 0 -68.5 -22.5t-27.5 -63.5q0 -31 8 -50l-155 -22q-15 35 -15 82q0 87 71.5 154t186.5 67q119 0 187.5 -56.5t68.5 -154.5q0 -73 -28 -127.5t-96 -122.5l-134 -129h265v-141h-516v108z" />
    <glyph glyph-name="threesuperior" unicode="&#xb3;" horiz-adv-x="710" 
d="M102 991l162 -35q-4 -16 -4 -30q0 -40 28 -61t70 -21q46 0 75.5 22.5t29.5 67.5q0 57 -42 78.5t-126 21.5v123q67 0 104 21.5t37 62.5q0 72 -84 72q-38 0 -64 -17.5t-26 -50.5q0 -23 6 -35l-149 -20q-10 27 -10 55q0 83 65.5 143t177.5 60q121 0 183.5 -48.5t62.5 -129.5
q0 -50 -22 -85.5t-70 -68.5q58 -22 93.5 -69t35.5 -117q0 -104 -76 -166t-205 -62q-121 0 -193.5 61t-72.5 155q0 48 14 73z" />
    <glyph glyph-name="acute" unicode="&#xb4;" horiz-adv-x="665" 
d="M106 1126l140 324h313l-254 -324h-199z" />
    <glyph glyph-name="mu" unicode="&#xb5;" 
d="M129 -418v1434h258v-572q0 -231 207 -231q108 0 171.5 77.5t63.5 201.5v524h258v-1016h-258v160q-50 -92 -132 -140.5t-191 -48.5q-63 0 -125 19q6 -117 6 -140v-268h-258z" />
    <glyph glyph-name="paragraph" unicode="&#xb6;" horiz-adv-x="1341" 
d="M768 1225v-1471h-229v885h-19q-193 0 -318.5 108.5t-125.5 288.5t125.5 289t318.5 109h758v-209h-133v-1471h-230v1471h-147z" />
    <glyph glyph-name="periodcentered" unicode="&#xb7;" horiz-adv-x="438" 
d="M82 594v274h274v-274h-274z" />
    <glyph glyph-name="cedilla" unicode="&#xb8;" horiz-adv-x="604" 
d="M203 -229l-76 67l68 195h143l-84 -142q31 19 82 19q72 0 116 -44t44 -116q0 -78 -56.5 -123t-138.5 -45q-156 0 -192 125l135 35q9 -45 57 -45q24 0 37.5 13.5t13.5 37.5q0 59 -57 59q-50 0 -92 -36z" />
    <glyph glyph-name="onesuperior" unicode="&#xb9;" horiz-adv-x="520" 
d="M78 1188v158q64 0 100 21t60 67h163v-717h-172v520q-44 -49 -151 -49z" />
    <glyph glyph-name="ordmasculine" unicode="&#xba;" horiz-adv-x="937" 
d="M854 973q0 -90 -33 -162.5t-87.5 -117.5t-122.5 -69t-142 -24q-75 0 -143 24t-122.5 69t-87 117.5t-32.5 162.5t32.5 162.5t87 117.5t122.5 69t143 24q74 0 142 -24t122.5 -69t87.5 -117.5t33 -162.5zM469 778q83 0 136.5 53t53.5 142q0 90 -53 142t-137 52t-138.5 -52
t-54.5 -142t54.5 -142.5t138.5 -52.5z" />
    <glyph glyph-name="guillemotright" unicode="&#xbb;" 
d="M350 127h-289l340 436l-340 436h289l342 -436zM793 127h-289l340 436l-340 436h289l342 -436z" />
    <glyph glyph-name="onequarter" unicode="&#xbc;" horiz-adv-x="1486" 
d="M78 1188v158q64 0 100 21t60 67h163v-717h-172v520q-44 -49 -151 -49zM373 -14l-148 100l891 1362l148 -100zM809 119v135l332 463h172v-463h73v-135h-73v-119h-172v119h-332zM1141 492l-170 -238h170v238z" />
    <glyph glyph-name="onehalf" unicode="&#xbd;" horiz-adv-x="1542" 
d="M78 1188v158q64 0 100 21t60 67h163v-717h-172v520q-44 -49 -151 -49zM373 -14l-148 100l891 1362l148 -100zM932 109l270 260q72 66 72 133q0 41 -23 62.5t-65 21.5q-41 0 -68.5 -22.5t-27.5 -63.5q0 -30 8 -49l-156 -23q-14 32 -14 82q0 87 71.5 154t186.5 67
q119 0 187.5 -56.5t68.5 -154.5q0 -73 -28 -127.5t-97 -122.5l-133 -129h264v-141h-516v109z" />
    <glyph glyph-name="threequarters" unicode="&#xbe;" horiz-adv-x="1628" 
d="M494 -14l-148 100l891 1362l147 -100zM950 119v135l332 463h172v-463h74v-135h-74v-119h-172v119h-332zM1282 492l-170 -238h170v238zM102 991l162 -35q-4 -16 -4 -30q0 -40 28 -61t70 -21q46 0 75.5 22.5t29.5 67.5q0 57 -42 78.5t-126 21.5v123q67 0 104 21.5t37 62.5
q0 72 -84 72q-38 0 -64 -17.5t-26 -50.5q0 -23 6 -35l-149 -20q-10 27 -10 55q0 83 65.5 143t177.5 60q121 0 183.5 -48.5t62.5 -129.5q0 -50 -22 -85.5t-70 -68.5q58 -22 93.5 -69t35.5 -117q0 -104 -76 -166t-205 -62q-121 0 -193.5 61t-72.5 155q0 48 14 73z" />
    <glyph glyph-name="questiondown" unicode="&#xbf;" horiz-adv-x="1124" 
d="M453 590h258v-33q0 -95 -37.5 -163t-138.5 -148q-105 -83 -147 -145.5t-42 -139.5q0 -79 59 -126.5t154 -47.5q98 0 165 55t67 148q0 33 -15 76l236 49q28 -61 28 -148q0 -77 -33.5 -151t-93 -132.5t-150.5 -94t-198 -35.5q-219 0 -346 107t-127 282q0 122 55.5 217
t208.5 223q55 47 76 93t21 114zM717 1016v-283h-271v283h271z" />
    <glyph glyph-name="Agrave" unicode="&#xc0;" horiz-adv-x="1437" 
d="M10 0l580 1434h258l579 -1434h-288l-144 375h-553l-143 -375h-289zM666 961l-131 -345h368l-131 345l-16 45l-37 110l-37 -110zM674 1868l139 -324h-199l-254 324h314z" />
    <glyph glyph-name="Aacute" unicode="&#xc1;" horiz-adv-x="1437" 
d="M10 0l580 1434h258l579 -1434h-288l-144 375h-553l-143 -375h-289zM666 961l-131 -345h368l-131 345l-16 45l-37 110l-37 -110zM627 1544l139 324h313l-254 -324h-198z" />
    <glyph glyph-name="Acircumflex" unicode="&#xc2;" horiz-adv-x="1437" 
d="M10 0l580 1434h258l579 -1434h-288l-144 375h-553l-143 -375h-289zM666 961l-131 -345h368l-131 345l-16 45l-37 110l-37 -110zM395 1544l232 322h184l231 -322h-202l-121 123l-121 -123h-203z" />
    <glyph glyph-name="Atilde" unicode="&#xc3;" horiz-adv-x="1437" 
d="M10 0l580 1434h258l579 -1434h-288l-144 375h-553l-143 -375h-289zM666 961l-131 -345h368l-131 345l-16 45l-37 110l-37 -110zM569 1679q-20 0 -33.5 -12.5t-13.5 -32.5q0 -18 15 -53l-152 -31q-29 45 -29 109q0 87 62 136.5t139 49.5q52 0 95 -14t70.5 -33.5
t50.5 -39.5t47 -34t48 -14q20 0 33.5 12.5t13.5 32.5q0 21 -14 53l152 31q28 -44 28 -108q0 -89 -61.5 -138t-138.5 -49q-64 0 -115 21t-78 46.5t-58.5 46.5t-60.5 21z" />
    <glyph glyph-name="Adieresis" unicode="&#xc4;" horiz-adv-x="1437" 
d="M10 0l580 1434h258l579 -1434h-288l-144 375h-553l-143 -375h-289zM666 961l-131 -345h368l-131 345l-16 45l-37 110l-37 -110zM782 1597v254h242v-254h-242zM414 1597v254h241v-254h-241z" />
    <glyph glyph-name="Aring" unicode="&#xc5;" horiz-adv-x="1437" 
d="M10 0l580 1434h258l579 -1434h-288l-144 375h-553l-143 -375h-289zM666 961l-131 -345h368l-131 345l-16 45l-37 110l-37 -110zM522 1718q0 82 57.5 138.5t139.5 56.5t139 -56.5t57 -138.5t-57 -138t-139 -56t-139.5 56.5t-57.5 137.5zM651 1718q0 -32 18.5 -50.5
t49.5 -18.5t49 18.5t18 50.5t-18 51t-49 19t-49.5 -19t-18.5 -51z" />
    <glyph glyph-name="AE" unicode="&#xc6;" horiz-adv-x="2017" 
d="M907 0v375h-448l-166 -375h-283l656 1434h1230v-242h-718v-330h661v-241h-661v-379h725v-242h-996zM821 1192l-256 -576h342v576h-86z" />
    <glyph glyph-name="Ccedilla" unicode="&#xc7;" horiz-adv-x="1572" 
d="M727 -233l-76 67l51 148q-271 37 -439.5 237.5t-168.5 497.5q0 220 98.5 391t267.5 262.5t378 91.5q221 0 386.5 -103t241.5 -272l-219 -157q-68 141 -169 211.5t-249 70.5q-94 0 -178 -35t-146.5 -98t-99 -157t-36.5 -205q0 -218 132.5 -357t327.5 -139q281 0 435 287
l211 -152q-69 -103 -132.5 -172t-140.5 -118.5t-168 -72t-207 -22.5l-49 -84q31 19 82 19q72 0 116 -44t44 -116q0 -78 -56.5 -123t-138.5 -45q-156 0 -192 125l135 35q9 -45 57 -45q24 0 38 13.5t14 37.5q0 59 -58 59q-50 0 -92 -36z" />
    <glyph glyph-name="Egrave" unicode="&#xc8;" horiz-adv-x="1259" 
d="M150 0v1434h989v-242h-719v-330h661v-241h-661v-379h725v-242h-995zM682 1868l139 -324h-198l-254 324h313z" />
    <glyph glyph-name="Eacute" unicode="&#xc9;" horiz-adv-x="1259" 
d="M150 0v1434h989v-242h-719v-330h661v-241h-661v-379h725v-242h-995zM489 1544l140 324h313l-254 -324h-199z" />
    <glyph glyph-name="Ecircumflex" unicode="&#xca;" horiz-adv-x="1259" 
d="M150 0v1434h989v-242h-719v-330h661v-241h-661v-379h725v-242h-995zM330 1544l231 322h184l232 -322h-203l-121 123l-121 -123h-202z" />
    <glyph glyph-name="Edieresis" unicode="&#xcb;" horiz-adv-x="1259" 
d="M150 0v1434h989v-242h-719v-330h661v-241h-661v-379h725v-242h-995zM717 1597v254h241v-254h-241zM348 1597v254h242v-254h-242z" />
    <glyph glyph-name="Igrave" unicode="&#xcc;" horiz-adv-x="569" 
d="M150 0v1434h270v-1434h-270zM281 1868l139 -324h-199l-254 324h314z" />
    <glyph glyph-name="Iacute" unicode="&#xcd;" horiz-adv-x="569" 
d="M150 0v1434h270v-1434h-270zM150 1544l139 324h313l-254 -324h-198z" />
    <glyph glyph-name="Icircumflex" unicode="&#xce;" horiz-adv-x="569" 
d="M150 0v1434h270v-1434h-270zM-39 1544l232 322h184l231 -322h-202l-121 123l-121 -123h-203z" />
    <glyph glyph-name="Idieresis" unicode="&#xcf;" horiz-adv-x="569" 
d="M150 0v1434h270v-1434h-270zM348 1597v254h242v-254h-242zM-20 1597v254h241v-254h-241z" />
    <glyph glyph-name="Eth" unicode="&#xd0;" horiz-adv-x="1533" 
d="M68 604v225h159v605h432q171 0 312.5 -45t246.5 -132t163.5 -225t58.5 -315t-58.5 -315t-163.5 -225t-246.5 -132t-312.5 -45h-432v604h-159zM498 250h180q225 0 356 119t131 348q0 226 -131.5 346.5t-355.5 120.5h-180v-355h317v-225h-317v-354z" />
    <glyph glyph-name="Ntilde" unicode="&#xd1;" horiz-adv-x="1495" 
d="M150 0v1434h274l598 -912q6 -9 27 -45q23 -40 34 -67v1024h263v-1434h-275l-598 918q-6 9 -27 45q-27 48 -34 67v-1030h-262zM598 1679q-20 0 -33.5 -12.5t-13.5 -32.5q0 -21 14 -53l-151 -31q-29 45 -29 109q0 87 62 136.5t139 49.5q52 0 95 -14t70.5 -33.5t50.5 -39.5
t47 -34t48 -14q20 0 33.5 12.5t13.5 32.5q0 21 -14 53l151 31q29 -45 29 -108q0 -89 -62 -138t-139 -49q-52 0 -95 14t-70.5 34t-50.5 39.5t-47 33.5t-48 14z" />
    <glyph glyph-name="Ograve" unicode="&#xd2;" horiz-adv-x="1662" 
d="M1569 717q0 -211 -96.5 -382t-265.5 -267.5t-376 -96.5q-155 0 -292 57t-234.5 155.5t-154 237t-56.5 296.5q0 211 96 381.5t265 267t376 96.5t376 -96.5t265.5 -267t96.5 -381.5zM831 221q200 0 331.5 135t131.5 361t-131.5 360.5t-331.5 134.5t-331 -134.5t-131 -360.5
q0 -227 131 -361.5t331 -134.5zM858 1868l139 -324h-198l-254 324h313z" />
    <glyph glyph-name="Oacute" unicode="&#xd3;" horiz-adv-x="1662" 
d="M1569 717q0 -211 -96.5 -382t-265.5 -267.5t-376 -96.5q-155 0 -292 57t-234.5 155.5t-154 237t-56.5 296.5q0 211 96 381.5t265 267t376 96.5t376 -96.5t265.5 -267t96.5 -381.5zM831 221q200 0 331.5 135t131.5 361t-131.5 360.5t-331.5 134.5t-331 -134.5t-131 -360.5
q0 -227 131 -361.5t331 -134.5zM668 1544l139 324h313l-254 -324h-198z" />
    <glyph glyph-name="Ocircumflex" unicode="&#xd4;" horiz-adv-x="1662" 
d="M1569 717q0 -211 -96.5 -382t-265.5 -267.5t-376 -96.5q-155 0 -292 57t-234.5 155.5t-154 237t-56.5 296.5q0 211 96 381.5t265 267t376 96.5t376 -96.5t265.5 -267t96.5 -381.5zM831 221q200 0 331.5 135t131.5 361t-131.5 360.5t-331.5 134.5t-331 -134.5t-131 -360.5
q0 -227 131 -361.5t331 -134.5zM508 1544l231 322h185l231 -322h-203l-121 123l-120 -123h-203z" />
    <glyph glyph-name="Otilde" unicode="&#xd5;" horiz-adv-x="1662" 
d="M1569 717q0 -211 -96.5 -382t-265.5 -267.5t-376 -96.5q-155 0 -292 57t-234.5 155.5t-154 237t-56.5 296.5q0 211 96 381.5t265 267t376 96.5t376 -96.5t265.5 -267t96.5 -381.5zM831 221q200 0 331.5 135t131.5 361t-131.5 360.5t-331.5 134.5t-331 -134.5t-131 -360.5
q0 -227 131 -361.5t331 -134.5zM682 1679q-20 0 -33.5 -12.5t-13.5 -32.5q0 -21 14 -53l-151 -31q-29 45 -29 109q0 87 62 136.5t139 49.5q52 0 95 -14t70.5 -33.5t50.5 -39.5t47 -34t48 -14q20 0 33.5 12.5t13.5 32.5q0 21 -14 53l151 31q29 -45 29 -108q0 -89 -62 -138
t-139 -49q-52 0 -95 14t-70.5 34t-50.5 39.5t-47 33.5t-48 14z" />
    <glyph glyph-name="Odieresis" unicode="&#xd6;" horiz-adv-x="1662" 
d="M1569 717q0 -211 -96.5 -382t-265.5 -267.5t-376 -96.5q-155 0 -292 57t-234.5 155.5t-154 237t-56.5 296.5q0 211 96 381.5t265 267t376 96.5t376 -96.5t265.5 -267t96.5 -381.5zM831 221q200 0 331.5 135t131.5 361t-131.5 360.5t-331.5 134.5t-331 -134.5t-131 -360.5
q0 -227 131 -361.5t331 -134.5zM895 1597v254h242v-254h-242zM526 1597v254h242v-254h-242z" />
    <glyph glyph-name="multiply" unicode="&#xd7;" horiz-adv-x="1138" 
d="M293 324l-148 147l277 277l-277 276l148 147l276 -276l277 276l147 -147l-276 -276l276 -277l-147 -147l-277 276z" />
    <glyph glyph-name="Oslash" unicode="&#xd8;" horiz-adv-x="1662" 
d="M1569 717q0 -211 -96.5 -382t-265.5 -267.5t-376 -96.5q-122 0 -241 37l-72 -135l-201 115l66 127q-137 101 -213 257t-76 345q0 211 96 381.5t265 267t376 96.5q123 0 242 -37l72 136l201 -115l-66 -127q137 -101 213 -257t76 -345zM831 221q200 0 331.5 135t131.5 361
q0 231 -137 368l-448 -849q56 -15 122 -15zM369 717q0 -232 137 -369l448 850q-52 14 -123 14q-200 0 -331 -134.5t-131 -360.5z" />
    <glyph glyph-name="Ugrave" unicode="&#xd9;" horiz-adv-x="1433" 
d="M1305 1434v-891q0 -179 -77.5 -310t-209 -196.5t-301.5 -65.5t-301.5 65.5t-209 196.5t-77.5 310v891h270v-865q0 -166 84.5 -257t233.5 -91t233 91t84 257v865h271zM743 1868l140 -324h-199l-254 324h313z" />
    <glyph glyph-name="Uacute" unicode="&#xda;" horiz-adv-x="1433" 
d="M1305 1434v-891q0 -179 -77.5 -310t-209 -196.5t-301.5 -65.5t-301.5 65.5t-209 196.5t-77.5 310v891h270v-865q0 -166 84.5 -257t233.5 -91t233 91t84 257v865h271zM553 1544l139 324h314l-254 -324h-199z" />
    <glyph glyph-name="Ucircumflex" unicode="&#xdb;" horiz-adv-x="1433" 
d="M1305 1434v-891q0 -179 -77.5 -310t-209 -196.5t-301.5 -65.5t-301.5 65.5t-209 196.5t-77.5 310v891h270v-865q0 -166 84.5 -257t233.5 -91t233 91t84 257v865h271zM393 1544l232 322h184l231 -322h-202l-121 123l-121 -123h-203z" />
    <glyph glyph-name="Udieresis" unicode="&#xdc;" horiz-adv-x="1433" 
d="M1305 1434v-891q0 -179 -77.5 -310t-209 -196.5t-301.5 -65.5t-301.5 65.5t-209 196.5t-77.5 310v891h270v-865q0 -166 84.5 -257t233.5 -91t233 91t84 257v865h271zM780 1597v254h242v-254h-242zM412 1597v254h241v-254h-241z" />
    <glyph glyph-name="Yacute" unicode="&#xdd;" horiz-adv-x="1232" 
d="M752 561v-561h-271v561l-473 873h297l266 -510q3 -6 9 -19t8 -16l28 -70q4 13 14.5 36.5t14.5 33.5q2 3 8 16t9 19l266 510h297zM432 1544l139 324h314l-254 -324h-199z" />
    <glyph glyph-name="Thorn" unicode="&#xde;" horiz-adv-x="1429" 
d="M150 0v1434h270v-250h381q247 0 391.5 -122.5t144.5 -344.5t-144.5 -344.5t-391.5 -122.5h-381v-250h-270zM420 942v-450h373q137 0 205.5 59.5t68.5 165.5t-68.5 165.5t-205.5 59.5h-373z" />
    <glyph glyph-name="germandbls" unicode="&#xdf;" horiz-adv-x="1232" 
d="M504 668v225h71q99 0 157.5 49t58.5 139q0 73 -47.5 114.5t-133.5 41.5q-82 0 -138 -56t-56 -163v-1018h-258v807h-115v209h115v14q0 105 38 189t102 136t145.5 79.5t172.5 27.5q194 0 310 -95t116 -245q0 -121 -53 -196t-153 -123q151 -59 232 -162t81 -266
q0 -181 -110 -292.5t-289 -111.5q-97 0 -166.5 22t-130.5 70l112 201q67 -67 158 -67q71 0 119.5 49t48.5 143q0 125 -94 202t-230 77h-63z" />
    <glyph glyph-name="agrave" unicode="&#xe0;" horiz-adv-x="1161" 
d="M1081 0h-262q-49 70 -49 162q-107 -191 -340 -191q-152 0 -247 87t-95 231q0 75 29.5 135.5t81 100.5t115 64.5t137.5 35.5l305 47v39q0 74 -47 113.5t-140 39.5q-87 0 -134.5 -32t-47.5 -82q0 -16 4 -25l-231 -78q-19 43 -19 86q0 126 116.5 218.5t311.5 92.5
q218 0 331.5 -92t113.5 -276v-424q0 -87 15 -142t52 -110zM492 180q117 0 190.5 76t73.5 219v19l-246 -41q-170 -27 -170 -150q0 -60 41 -91.5t111 -31.5zM586 1454l139 -324h-199l-254 324h314z" />
    <glyph glyph-name="aacute" unicode="&#xe1;" horiz-adv-x="1161" 
d="M1081 0h-262q-49 70 -49 162q-107 -191 -340 -191q-152 0 -247 87t-95 231q0 75 29.5 135.5t81 100.5t115 64.5t137.5 35.5l305 47v39q0 74 -47 113.5t-140 39.5q-87 0 -134.5 -32t-47.5 -82q0 -16 4 -25l-231 -78q-19 43 -19 86q0 126 116.5 218.5t311.5 92.5
q218 0 331.5 -92t113.5 -276v-424q0 -87 15 -142t52 -110zM492 180q117 0 190.5 76t73.5 219v19l-246 -41q-170 -27 -170 -150q0 -60 41 -91.5t111 -31.5zM416 1130l139 324h313l-254 -324h-198z" />
    <glyph glyph-name="acircumflex" unicode="&#xe2;" horiz-adv-x="1161" 
d="M1081 0h-262q-49 70 -49 162q-107 -191 -340 -191q-152 0 -247 87t-95 231q0 75 29.5 135.5t81 100.5t115 64.5t137.5 35.5l305 47v39q0 74 -47 113.5t-140 39.5q-87 0 -134.5 -32t-47.5 -82q0 -16 4 -25l-231 -78q-19 43 -19 86q0 126 116.5 218.5t311.5 92.5
q218 0 331.5 -92t113.5 -276v-424q0 -87 15 -142t52 -110zM492 180q117 0 190.5 76t73.5 219v19l-246 -41q-170 -27 -170 -150q0 -60 41 -91.5t111 -31.5zM256 1133l231 321h185l231 -321h-203l-120 122l-121 -122h-203z" />
    <glyph glyph-name="atilde" unicode="&#xe3;" horiz-adv-x="1161" 
d="M1081 0h-262q-49 70 -49 162q-107 -191 -340 -191q-152 0 -247 87t-95 231q0 75 29.5 135.5t81 100.5t115 64.5t137.5 35.5l305 47v39q0 74 -47 113.5t-140 39.5q-87 0 -134.5 -32t-47.5 -82q0 -16 4 -25l-231 -78q-19 43 -19 86q0 126 116.5 218.5t311.5 92.5
q218 0 331.5 -92t113.5 -276v-424q0 -87 15 -142t52 -110zM492 180q117 0 190.5 76t73.5 219v19l-246 -41q-170 -27 -170 -150q0 -60 41 -91.5t111 -31.5zM418 1268q-20 0 -33.5 -12.5t-13.5 -32.5q0 -22 14 -54l-152 -30q-28 44 -28 108q0 87 62 137t139 50q52 0 95 -14
t70.5 -34t50.5 -40t47 -34t48 -14q20 0 33.5 12.5t13.5 32.5q0 22 -14 54l151 30q29 -45 29 -108q0 -88 -61.5 -137t-139.5 -49q-52 0 -95 14t-70.5 33.5t-50.5 39.5t-47 34t-48 14z" />
    <glyph glyph-name="adieresis" unicode="&#xe4;" horiz-adv-x="1161" 
d="M1081 0h-262q-49 70 -49 162q-107 -191 -340 -191q-152 0 -247 87t-95 231q0 75 29.5 135.5t81 100.5t115 64.5t137.5 35.5l305 47v39q0 74 -47 113.5t-140 39.5q-87 0 -134.5 -32t-47.5 -82q0 -16 4 -25l-231 -78q-19 43 -19 86q0 126 116.5 218.5t311.5 92.5
q218 0 331.5 -92t113.5 -276v-424q0 -87 15 -142t52 -110zM492 180q117 0 190.5 76t73.5 219v19l-246 -41q-170 -27 -170 -150q0 -60 41 -91.5t111 -31.5zM643 1186v254h242v-254h-242zM274 1186v254h242v-254h-242z" />
    <glyph glyph-name="aring" unicode="&#xe5;" horiz-adv-x="1161" 
d="M1081 0h-262q-49 70 -49 162q-107 -191 -340 -191q-152 0 -247 87t-95 231q0 75 29.5 135.5t81 100.5t115 64.5t137.5 35.5l305 47v39q0 74 -47 113.5t-140 39.5q-87 0 -134.5 -32t-47.5 -82q0 -16 4 -25l-231 -78q-19 43 -19 86q0 126 116.5 218.5t311.5 92.5
q218 0 331.5 -92t113.5 -276v-424q0 -87 15 -142t52 -110zM492 180q117 0 190.5 76t73.5 219v19l-246 -41q-170 -27 -170 -150q0 -60 41 -91.5t111 -31.5zM383 1300q0 82 57.5 138.5t139.5 56.5t139 -56.5t57 -138.5t-57 -138t-139 -56t-139.5 56.5t-57.5 137.5zM512 1300
q0 -32 18.5 -50.5t49.5 -18.5t49 18.5t18 50.5t-18 51t-49 19t-49.5 -19t-18.5 -51z" />
    <glyph glyph-name="ae" unicode="&#xe6;" horiz-adv-x="1873" 
d="M1798 446h-782q12 -117 87 -185t191 -68q101 0 168.5 47.5t112.5 138.5l192 -111q-73 -151 -189 -224t-288 -73q-135 0 -247.5 60.5t-184.5 171.5q-39 -78 -106 -132t-139 -77t-148 -23q-167 0 -272 87t-105 231q0 160 125.5 253t345.5 93h199v27q0 105 -38.5 153.5
t-148.5 48.5q-88 0 -135 -32t-47 -82q0 -16 4 -25l-231 -78q-19 43 -19 86q0 126 110.5 218.5t295.5 92.5q270 0 379 -145q151 145 375 145q217 0 356 -143t139 -364v-91zM489 180q113 0 191 71t78 185v10h-215q-96 0 -149.5 -41.5t-53.5 -105.5q0 -55 40.5 -87t108.5 -32z
M1294 848q-101 0 -174.5 -59t-103.5 -154h545q-19 100 -88.5 156.5t-178.5 56.5z" />
    <glyph glyph-name="ccedilla" unicode="&#xe7;" horiz-adv-x="1146" 
d="M508 -233l-76 67l51 150q-184 38 -297.5 178.5t-113.5 345.5q0 158 73.5 281.5t194.5 189t266 65.5q169 0 290 -72.5t175 -203.5l-211 -139q-78 174 -256 174q-117 0 -193.5 -81t-76.5 -214q0 -134 75.5 -214.5t194.5 -80.5q99 0 161 45.5t107 140.5l209 -135
q-143 -290 -473 -293l-49 -84q31 19 82 19q72 0 116 -44t44 -116q0 -78 -56.5 -123t-138.5 -45q-156 0 -192 125l135 35q9 -45 57 -45q24 0 37.5 13.5t13.5 37.5q0 59 -57 59q-50 0 -92 -36z" />
    <glyph glyph-name="egrave" unicode="&#xe8;" horiz-adv-x="1177" 
d="M1102 446h-783q12 -117 87.5 -185t191.5 -68q101 0 168.5 47.5t112.5 138.5l192 -111q-73 -151 -189 -224t-288 -73q-141 0 -260 67t-190.5 191t-71.5 279q0 156 72 279.5t193.5 190t268.5 66.5q217 0 356.5 -143t139.5 -364v-91zM598 848q-101 0 -175 -59.5t-104 -153.5
h545q-19 100 -88 156.5t-178 56.5zM614 1450l140 -324h-199l-254 324h313z" />
    <glyph glyph-name="eacute" unicode="&#xe9;" horiz-adv-x="1177" 
d="M1102 446h-783q12 -117 87.5 -185t191.5 -68q101 0 168.5 47.5t112.5 138.5l192 -111q-73 -151 -189 -224t-288 -73q-141 0 -260 67t-190.5 191t-71.5 279q0 156 72 279.5t193.5 190t268.5 66.5q217 0 356.5 -143t139.5 -364v-91zM598 848q-101 0 -175 -59.5t-104 -153.5
h545q-19 100 -88 156.5t-178 56.5zM424 1126l139 324h314l-254 -324h-199z" />
    <glyph glyph-name="ecircumflex" unicode="&#xea;" horiz-adv-x="1177" 
d="M1102 446h-783q12 -117 87.5 -185t191.5 -68q101 0 168.5 47.5t112.5 138.5l192 -111q-73 -151 -189 -224t-288 -73q-141 0 -260 67t-190.5 191t-71.5 279q0 156 72 279.5t193.5 190t268.5 66.5q217 0 356.5 -143t139.5 -364v-91zM598 848q-101 0 -175 -59.5t-104 -153.5
h545q-19 100 -88 156.5t-178 56.5zM264 1126l232 322h184l231 -322h-202l-121 123l-121 -123h-203z" />
    <glyph glyph-name="edieresis" unicode="&#xeb;" horiz-adv-x="1177" 
d="M1102 446h-783q12 -117 87.5 -185t191.5 -68q101 0 168.5 47.5t112.5 138.5l192 -111q-73 -151 -189 -224t-288 -73q-141 0 -260 67t-190.5 191t-71.5 279q0 156 72 279.5t193.5 190t268.5 66.5q217 0 356.5 -143t139.5 -364v-91zM598 848q-101 0 -175 -59.5t-104 -153.5
h545q-19 100 -88 156.5t-178 56.5zM651 1180v254h242v-254h-242zM283 1180v254h241v-254h-241z" />
    <glyph glyph-name="igrave" unicode="&#xec;" horiz-adv-x="512" 
d="M127 0v1016h258v-1016h-258zM246 1450l139 -324h-199l-254 324h314z" />
    <glyph glyph-name="iacute" unicode="&#xed;" horiz-adv-x="512" 
d="M127 0v1016h258v-1016h-258zM127 1126l139 324h314l-254 -324h-199z" />
    <glyph glyph-name="icircumflex" unicode="&#xee;" horiz-adv-x="512" 
d="M127 0v1016h258v-1016h-258zM-68 1126l232 322h184l232 -322h-203l-121 123l-121 -123h-203z" />
    <glyph glyph-name="idieresis" unicode="&#xef;" horiz-adv-x="512" 
d="M127 0v1016h258v-1016h-258zM319 1180v254h242v-254h-242zM-49 1180v254h242v-254h-242z" />
    <glyph glyph-name="eth" unicode="&#xf0;" horiz-adv-x="1208" 
d="M465 1016l-64 170l109 41q-86 55 -219 116l119 193q208 -93 350 -211l217 84l65 -170l-137 -53q219 -261 219 -606q0 -281 -137.5 -445t-386.5 -164q-231 0 -373.5 138.5t-142.5 355.5q0 211 142 346t347 135q189 0 285 -108q-59 151 -180 260zM606 729q-110 0 -189 -74
t-79 -196q0 -123 79 -197t189 -74t189 74t79 197q0 122 -79 196t-189 74z" />
    <glyph glyph-name="ntilde" unicode="&#xf1;" 
d="M1087 692v-692h-258v586q0 217 -206 217q-104 0 -170 -79.5t-66 -207.5v-516h-258v1016h258v-164q58 90 147 141t197 51q164 0 260 -96t96 -256zM459 1262q-20 0 -33.5 -12.5t-13.5 -32.5q0 -22 14 -54l-152 -30q-28 44 -28 108q0 87 61.5 136.5t138.5 49.5q64 0 115 -21
t78 -46.5t58.5 -46.5t60.5 -21q20 0 33.5 12.5t13.5 32.5q0 22 -14 54l151 30q29 -45 29 -108q0 -89 -62 -138t-139 -49q-52 0 -95 14t-70.5 34t-50.5 40t-47 34t-48 14z" />
    <glyph glyph-name="ograve" unicode="&#xf2;" horiz-adv-x="1253" 
d="M1182 508q0 -103 -31 -191.5t-84 -151t-124 -107t-151 -66t-165 -21.5t-165 21.5t-151 66t-124 107t-84 151t-31 191.5t31 191t84 151t124 107t151 65.5t165 21.5t165 -21.5t151 -65.5t124 -107t84 -151t31 -191zM627 213q120 0 206.5 80t86.5 215t-86.5 215t-206.5 80
t-206.5 -80t-86.5 -215t86.5 -215t206.5 -80zM608 1450l140 -324h-199l-254 324h313z" />
    <glyph glyph-name="oacute" unicode="&#xf3;" horiz-adv-x="1253" 
d="M1182 508q0 -103 -31 -191.5t-84 -151t-124 -107t-151 -66t-165 -21.5t-165 21.5t-151 66t-124 107t-84 151t-31 191.5t31 191t84 151t124 107t151 65.5t165 21.5t165 -21.5t151 -65.5t124 -107t84 -151t31 -191zM627 213q120 0 206.5 80t86.5 215t-86.5 215t-206.5 80
t-206.5 -80t-86.5 -215t86.5 -215t206.5 -80zM508 1126l139 324h314l-254 -324h-199z" />
    <glyph glyph-name="ocircumflex" unicode="&#xf4;" horiz-adv-x="1253" 
d="M1182 508q0 -103 -31 -191.5t-84 -151t-124 -107t-151 -66t-165 -21.5t-165 21.5t-151 66t-124 107t-84 151t-31 191.5t31 191t84 151t124 107t151 65.5t165 21.5t165 -21.5t151 -65.5t124 -107t84 -151t31 -191zM627 213q120 0 206.5 80t86.5 215t-86.5 215t-206.5 80
t-206.5 -80t-86.5 -215t86.5 -215t206.5 -80zM303 1126l232 322h184l231 -322h-202l-121 123l-121 -123h-203z" />
    <glyph glyph-name="otilde" unicode="&#xf5;" horiz-adv-x="1253" 
d="M1182 508q0 -103 -31 -191.5t-84 -151t-124 -107t-151 -66t-165 -21.5t-165 21.5t-151 66t-124 107t-84 151t-31 191.5t31 191t84 151t124 107t151 65.5t165 21.5t165 -21.5t151 -65.5t124 -107t84 -151t31 -191zM627 213q120 0 206.5 80t86.5 215t-86.5 215t-206.5 80
t-206.5 -80t-86.5 -215t86.5 -215t206.5 -80zM477 1262q-20 0 -33.5 -12.5t-13.5 -32.5q0 -22 14 -54l-151 -30q-29 45 -29 108q0 87 62 136.5t139 49.5q52 0 95 -14t70.5 -33.5t50.5 -39.5t47 -34t48 -14q20 0 33.5 12.5t13.5 32.5q0 22 -14 54l152 30q28 -44 28 -108
q0 -89 -62 -138t-139 -49q-52 0 -95 14t-70.5 34t-50.5 40t-47 34t-48 14z" />
    <glyph glyph-name="odieresis" unicode="&#xf6;" horiz-adv-x="1253" 
d="M1182 508q0 -103 -31 -191.5t-84 -151t-124 -107t-151 -66t-165 -21.5t-165 21.5t-151 66t-124 107t-84 151t-31 191.5t31 191t84 151t124 107t151 65.5t165 21.5t165 -21.5t151 -65.5t124 -107t84 -151t31 -191zM627 213q120 0 206.5 80t86.5 215t-86.5 215t-206.5 80
t-206.5 -80t-86.5 -215t86.5 -215t206.5 -80zM690 1180v254h242v-254h-242zM322 1180v254h241v-254h-241z" />
    <glyph glyph-name="divide" unicode="&#xf7;" horiz-adv-x="1177" 
d="M451 717v274h274v-274h-274zM451 0v274h274v-274h-274zM92 391v209h991v-209h-991z" />
    <glyph glyph-name="oslash" unicode="&#xf8;" horiz-adv-x="1253" 
d="M1182 508q0 -103 -31 -191.5t-84 -151t-124 -107t-151 -66t-165 -21.5q-93 0 -185 27l-49 -84l-170 104l43 72q-194 146 -194 418q0 103 31 191t84 151t124 107t151 65.5t165 21.5q96 0 184 -26l49 84l170 -105l-43 -71q91 -69 143 -175.5t52 -242.5zM334 508
q0 -116 65 -191l283 482q-36 4 -55 4q-120 0 -206.5 -80t-86.5 -215zM627 213q120 0 206.5 80t86.5 215q0 114 -66 190l-283 -481q36 -4 56 -4z" />
    <glyph glyph-name="ugrave" unicode="&#xf9;" 
d="M129 385v631h258v-572q0 -231 207 -231q108 0 171.5 77.5t63.5 201.5v524h258v-1016h-258v160q-50 -92 -132 -140.5t-191 -48.5q-166 0 -271.5 109t-105.5 305zM635 1450l139 -324h-199l-253 324h313z" />
    <glyph glyph-name="uacute" unicode="&#xfa;" 
d="M129 385v631h258v-572q0 -231 207 -231q108 0 171.5 77.5t63.5 201.5v524h258v-1016h-258v160q-50 -92 -132 -140.5t-191 -48.5q-166 0 -271.5 109t-105.5 305zM444 1126l140 324h313l-254 -324h-199z" />
    <glyph glyph-name="ucircumflex" unicode="&#xfb;" 
d="M129 385v631h258v-572q0 -231 207 -231q108 0 171.5 77.5t63.5 201.5v524h258v-1016h-258v160q-50 -92 -132 -140.5t-191 -48.5q-166 0 -271.5 109t-105.5 305zM285 1126l231 322h184l232 -322h-203l-121 123l-121 -123h-202z" />
    <glyph glyph-name="udieresis" unicode="&#xfc;" 
d="M129 385v631h258v-572q0 -231 207 -231q108 0 171.5 77.5t63.5 201.5v524h258v-1016h-258v160q-50 -92 -132 -140.5t-191 -48.5q-166 0 -271.5 109t-105.5 305zM672 1180v254h241v-254h-241zM303 1180v254h242v-254h-242z" />
    <glyph glyph-name="yacute" unicode="&#xfd;" horiz-adv-x="1118" 
d="M147 -410l41 240q48 -25 93 -25q42 0 68.5 22.5t45.5 74.5l33 90l-418 1024h293l262 -660l250 660h293l-483 -1200q-53 -132 -134 -190t-202 -58q-81 0 -142 22zM395 1126l140 324h313l-254 -324h-199z" />
    <glyph glyph-name="thorn" unicode="&#xfe;" horiz-adv-x="1277" 
d="M129 -418v1852h258v-564q53 77 149 125.5t209 48.5q93 0 176 -37t146.5 -104t101 -169.5t37.5 -225.5q0 -159 -65 -282.5t-175 -189t-245 -65.5q-105 0 -190.5 41t-143.5 113v-543h-258zM657 803q-124 0 -205 -85t-81 -210t81 -210t205 -85t205.5 85t81.5 210t-81.5 210
t-205.5 85z" />
    <glyph glyph-name="ydieresis" unicode="&#xff;" horiz-adv-x="1118" 
d="M147 -410l41 240q48 -25 93 -25q42 0 68.5 22.5t45.5 74.5l33 90l-418 1024h293l262 -660l250 660h293l-483 -1200q-53 -132 -134 -190t-202 -58q-81 0 -142 22zM623 1180v254h241v-254h-241zM254 1180v254h242v-254h-242z" />
    <glyph glyph-name="Amacron" unicode="&#x100;" horiz-adv-x="1437" 
d="M10 0l580 1434h258l579 -1434h-288l-144 375h-553l-143 -375h-289zM666 961l-131 -345h368l-131 345l-16 45l-37 110l-37 -110zM465 1622v193h508v-193h-508z" />
    <glyph glyph-name="amacron" unicode="&#x101;" horiz-adv-x="1161" 
d="M1081 0h-262q-49 70 -49 162q-107 -191 -340 -191q-152 0 -247 87t-95 231q0 75 29.5 135.5t81 100.5t115 64.5t137.5 35.5l305 47v39q0 74 -47 113.5t-140 39.5q-87 0 -134.5 -32t-47.5 -82q0 -16 4 -25l-231 -78q-19 43 -19 86q0 126 116.5 218.5t311.5 92.5
q218 0 331.5 -92t113.5 -276v-424q0 -87 15 -142t52 -110zM492 180q117 0 190.5 76t73.5 219v19l-246 -41q-170 -27 -170 -150q0 -60 41 -91.5t111 -31.5zM326 1204v193h508v-193h-508z" />
    <glyph glyph-name="Abreve" unicode="&#x102;" horiz-adv-x="1437" 
d="M10 0l580 1434h258l579 -1434h-288l-144 375h-553l-143 -375h-289zM666 961l-131 -345h368l-131 345l-16 45l-37 110l-37 -110zM797 1804h155q0 -101 -65 -166t-168 -65t-168.5 65.5t-65.5 165.5h156q0 -38 21 -63t57 -25t57 25t21 63z" />
    <glyph glyph-name="abreve" unicode="&#x103;" horiz-adv-x="1161" 
d="M1081 0h-262q-49 70 -49 162q-107 -191 -340 -191q-152 0 -247 87t-95 231q0 75 29.5 135.5t81 100.5t115 64.5t137.5 35.5l305 47v39q0 74 -47 113.5t-140 39.5q-87 0 -134.5 -32t-47.5 -82q0 -16 4 -25l-231 -78q-19 43 -19 86q0 126 116.5 218.5t311.5 92.5
q218 0 331.5 -92t113.5 -276v-424q0 -87 15 -142t52 -110zM492 180q117 0 190.5 76t73.5 219v19l-246 -41q-170 -27 -170 -150q0 -60 41 -91.5t111 -31.5zM657 1386h156q0 -101 -65 -166t-168 -65q-104 0 -169 65.5t-65 165.5h156q0 -38 21 -63t57 -25t56.5 25t20.5 63z" />
    <glyph glyph-name="Aogonek" unicode="&#x104;" horiz-adv-x="1437" 
d="M1075 -213q0 127 121 213h-57l-144 375h-553l-143 -375h-289l580 1434h258l579 -1434q-147 -84 -147 -160q0 -37 23.5 -57.5t60.5 -20.5q22 0 45 5l23 -158q-58 -15 -123 -15q-92 0 -163 52t-71 141zM666 961l-131 -345h368l-131 345l-16 45l-37 110l-37 -110z" />
    <glyph glyph-name="aogonek" unicode="&#x105;" horiz-adv-x="1161" 
d="M729 -213q0 127 121 213h-31q-49 70 -49 162q-107 -191 -340 -191q-152 0 -247 87t-95 231q0 75 29.5 135.5t81 100.5t115 64.5t137.5 35.5l305 47v39q0 74 -47 113.5t-140 39.5q-87 0 -134.5 -32t-47.5 -82q0 -16 4 -25l-231 -78q-19 43 -19 86q0 126 116.5 218.5
t311.5 92.5q218 0 331.5 -92t113.5 -276v-424q0 -87 15 -142t52 -110q-147 -84 -147 -160q0 -37 23.5 -57.5t60.5 -20.5q22 0 45 5l22 -158q-58 -15 -122 -15q-92 0 -163 52t-71 141zM492 180q117 0 190.5 76t73.5 219v19l-246 -41q-170 -27 -170 -150q0 -60 41 -91.5
t111 -31.5z" />
    <glyph glyph-name="Cacute" unicode="&#x106;" horiz-adv-x="1572" 
d="M1264 508l211 -152q-69 -103 -132.5 -172t-140.5 -118.5t-168 -72t-207 -22.5q-209 0 -375.5 92t-262 263t-95.5 391t98.5 391t267.5 262.5t378 91.5q221 0 386.5 -103t241.5 -272l-219 -157q-68 141 -169 211.5t-249 70.5q-94 0 -178 -35t-146.5 -98t-99 -157
t-36.5 -205q0 -218 132.5 -357t327.5 -139q281 0 435 287zM664 1544l139 324h313l-254 -324h-198z" />
    <glyph glyph-name="cacute" unicode="&#x107;" horiz-adv-x="1146" 
d="M872 399l209 -135q-71 -145 -192.5 -219t-282.5 -74q-150 0 -271.5 66t-192 189t-70.5 282q0 158 73.5 281.5t194.5 189t266 65.5q169 0 290 -72.5t175 -203.5l-211 -139q-78 174 -256 174q-117 0 -193.5 -81t-76.5 -214q0 -134 75.5 -214.5t194.5 -80.5q99 0 161 45.5
t107 140.5zM428 1126l139 324h314l-254 -324h-199z" />
    <glyph glyph-name="Ccircumflex" unicode="&#x108;" horiz-adv-x="1572" 
d="M1264 508l211 -152q-69 -103 -132.5 -172t-140.5 -118.5t-168 -72t-207 -22.5q-209 0 -375.5 92t-262 263t-95.5 391t98.5 391t267.5 262.5t378 91.5q221 0 386.5 -103t241.5 -272l-219 -157q-68 141 -169 211.5t-249 70.5q-94 0 -178 -35t-146.5 -98t-99 -157
t-36.5 -205q0 -218 132.5 -357t327.5 -139q281 0 435 287zM504 1544l231 322h185l231 -322h-203l-121 123l-120 -123h-203z" />
    <glyph glyph-name="ccircumflex" unicode="&#x109;" horiz-adv-x="1146" 
d="M872 399l209 -135q-71 -145 -192.5 -219t-282.5 -74q-150 0 -271.5 66t-192 189t-70.5 282q0 158 73.5 281.5t194.5 189t266 65.5q169 0 290 -72.5t175 -203.5l-211 -139q-78 174 -256 174q-117 0 -193.5 -81t-76.5 -214q0 -134 75.5 -214.5t194.5 -80.5q99 0 161 45.5
t107 140.5zM281 1126l231 322h184l232 -322h-203l-121 123l-121 -123h-202z" />
    <glyph glyph-name="Cdotaccent" unicode="&#x10a;" horiz-adv-x="1572" 
d="M1264 508l211 -152q-69 -103 -132.5 -172t-140.5 -118.5t-168 -72t-207 -22.5q-209 0 -375.5 92t-262 263t-95.5 391t98.5 391t267.5 262.5t378 91.5q221 0 386.5 -103t241.5 -272l-219 -157q-68 141 -169 211.5t-249 70.5q-94 0 -178 -35t-146.5 -98t-99 -157
t-36.5 -205q0 -218 132.5 -357t327.5 -139q281 0 435 287zM686 1581v270h283v-270h-283z" />
    <glyph glyph-name="cdotaccent" unicode="&#x10b;" horiz-adv-x="1146" 
d="M872 399l209 -135q-71 -145 -192.5 -219t-282.5 -74q-150 0 -271.5 66t-192 189t-70.5 282q0 158 73.5 281.5t194.5 189t266 65.5q169 0 290 -72.5t175 -203.5l-211 -139q-78 174 -256 174q-117 0 -193.5 -81t-76.5 -214q0 -134 75.5 -214.5t194.5 -80.5q99 0 161 45.5
t107 140.5zM463 1163v271h282v-271h-282z" />
    <glyph glyph-name="Ccaron" unicode="&#x10c;" horiz-adv-x="1572" 
d="M1264 508l211 -152q-69 -103 -132.5 -172t-140.5 -118.5t-168 -72t-207 -22.5q-209 0 -375.5 92t-262 263t-95.5 391t98.5 391t267.5 262.5t378 91.5q221 0 386.5 -103t241.5 -272l-219 -157q-68 141 -169 211.5t-249 70.5q-94 0 -178 -35t-146.5 -98t-99 -157
t-36.5 -205q0 -218 132.5 -357t327.5 -139q281 0 435 287zM735 1544l-231 322h203l120 -123l121 123h203l-231 -322h-185z" />
    <glyph glyph-name="ccaron" unicode="&#x10d;" horiz-adv-x="1146" 
d="M872 399l209 -135q-71 -145 -192.5 -219t-282.5 -74q-150 0 -271.5 66t-192 189t-70.5 282q0 158 73.5 281.5t194.5 189t266 65.5q169 0 290 -72.5t175 -203.5l-211 -139q-78 174 -256 174q-117 0 -193.5 -81t-76.5 -214q0 -134 75.5 -214.5t194.5 -80.5q99 0 161 45.5
t107 140.5zM512 1126l-231 322h202l121 -123l121 123h203l-232 -322h-184z" />
    <glyph glyph-name="Dcaron" unicode="&#x10e;" horiz-adv-x="1456" 
d="M150 0v1434h432q171 0 312.5 -45t246.5 -132t163 -225t58 -315t-58 -315t-163 -225t-246.5 -132t-312.5 -45h-432zM420 250h180q225 0 356 119t131 348q0 226 -131.5 346.5t-355.5 120.5h-180v-934zM451 1544l-232 322h203l121 -123l121 123h202l-231 -322h-184z" />
    <glyph glyph-name="dcaron" unicode="&#x10f;" horiz-adv-x="1495" 
d="M1278 1217v217h217v-222l-152 -221l-53 31l80 195h-92zM1149 1434v-1434h-258v143q-44 -77 -126.5 -124.5t-193.5 -47.5q-105 0 -196 37t-158.5 104.5t-106 169.5t-38.5 226q0 99 28 185.5t76 149.5t111.5 109t136 69t147.5 23q229 0 320 -153v543h258zM621 213
q123 0 204.5 83t81.5 212t-81.5 212t-204.5 83q-124 0 -205.5 -83.5t-81.5 -211.5t81.5 -211.5t205.5 -83.5z" />
    <glyph glyph-name="Dcroat" unicode="&#x110;" horiz-adv-x="1533" 
d="M68 604v225h159v605h432q171 0 312.5 -45t246.5 -132t163.5 -225t58.5 -315t-58.5 -315t-163.5 -225t-246.5 -132t-312.5 -45h-432v604h-159zM498 250h180q225 0 356 119t131 348q0 226 -131.5 346.5t-355.5 120.5h-180v-355h317v-225h-317v-354z" />
    <glyph glyph-name="dcroat" unicode="&#x111;" horiz-adv-x="1290" 
d="M1149 1434v-107h127v-197h-127v-1130h-258v143q-44 -77 -126.5 -124.5t-193.5 -47.5q-105 0 -196 37t-158.5 104.5t-106 169.5t-38.5 226q0 99 28 185.5t76 149.5t111.5 109t136 69t147.5 23q229 0 320 -153v239h-328v197h328v107h258zM621 213q123 0 204.5 83t81.5 212
t-81.5 212t-204.5 83q-124 0 -205.5 -83.5t-81.5 -211.5t81.5 -211.5t205.5 -83.5z" />
    <glyph glyph-name="Emacron" unicode="&#x112;" horiz-adv-x="1259" 
d="M150 0v1434h989v-242h-719v-330h661v-241h-661v-379h725v-242h-995zM395 1622v193h508v-193h-508z" />
    <glyph glyph-name="emacron" unicode="&#x113;" horiz-adv-x="1177" 
d="M1102 446h-783q12 -117 87.5 -185t191.5 -68q101 0 168.5 47.5t112.5 138.5l192 -111q-73 -151 -189 -224t-288 -73q-141 0 -260 67t-190.5 191t-71.5 279q0 156 72 279.5t193.5 190t268.5 66.5q217 0 356.5 -143t139.5 -364v-91zM598 848q-101 0 -175 -59.5t-104 -153.5
h545q-19 100 -88 156.5t-178 56.5zM338 1204v193h508v-193h-508z" />
    <glyph glyph-name="Ebreve" unicode="&#x114;" horiz-adv-x="1259" 
d="M150 0v1434h989v-242h-719v-330h661v-241h-661v-379h725v-242h-995zM727 1804h156q0 -100 -65.5 -165.5t-168.5 -65.5t-168 65t-65 166h155q0 -38 21 -63t57 -25t57 25t21 63z" />
    <glyph glyph-name="ebreve" unicode="&#x115;" horiz-adv-x="1177" 
d="M1102 446h-783q12 -117 87.5 -185t191.5 -68q101 0 168.5 47.5t112.5 138.5l192 -111q-73 -151 -189 -224t-288 -73q-141 0 -260 67t-190.5 191t-71.5 279q0 156 72 279.5t193.5 190t268.5 66.5q217 0 356.5 -143t139.5 -364v-91zM598 848q-101 0 -175 -59.5t-104 -153.5
h545q-19 100 -88 156.5t-178 56.5zM670 1386h155q0 -101 -65 -166t-168 -65q-104 0 -169 65.5t-65 165.5h156q0 -38 21 -63t57 -25t57 25t21 63z" />
    <glyph glyph-name="Edotaccent" unicode="&#x116;" horiz-adv-x="1259" 
d="M150 0v1434h989v-242h-719v-330h661v-241h-661v-379h725v-242h-995zM508 1581v270h283v-270h-283z" />
    <glyph glyph-name="edotaccent" unicode="&#x117;" horiz-adv-x="1177" 
d="M1102 446h-783q12 -117 87.5 -185t191.5 -68q101 0 168.5 47.5t112.5 138.5l192 -111q-73 -151 -189 -224t-288 -73q-141 0 -260 67t-190.5 191t-71.5 279q0 156 72 279.5t193.5 190t268.5 66.5q217 0 356.5 -143t139.5 -364v-91zM598 848q-101 0 -175 -59.5t-104 -153.5
h545q-19 100 -88 156.5t-178 56.5zM451 1163v271h282v-271h-282z" />
    <glyph glyph-name="Eogonek" unicode="&#x118;" horiz-adv-x="1259" 
d="M150 0v1434h989v-242h-719v-330h661v-241h-661v-379h725v-242q-148 -85 -148 -160q0 -37 23.5 -57.5t60.5 -20.5q23 0 45 5l23 -158q-58 -15 -123 -15q-92 0 -162.5 52t-70.5 141q0 128 120 213h-763z" />
    <glyph glyph-name="eogonek" unicode="&#x119;" horiz-adv-x="1177" 
d="M434 -213q0 108 90 188q-196 25 -324 170.5t-128 362.5q0 156 72 279.5t193.5 190t268.5 66.5q217 0 356.5 -143t139.5 -364v-91h-783q12 -117 87.5 -185t191.5 -68q101 0 168.5 47.5t112.5 138.5l192 -111q-51 -104 -119.5 -168.5t-165.5 -99.5q-66 -23 -106.5 -65
t-40.5 -89q0 -41 23.5 -62.5t60.5 -21.5q23 0 45 5l23 -158q-58 -15 -123 -15q-92 0 -163 52t-71 141zM598 848q-101 0 -175 -59.5t-104 -153.5h545q-19 100 -88 156.5t-178 56.5z" />
    <glyph glyph-name="Ecaron" unicode="&#x11a;" horiz-adv-x="1259" 
d="M150 0v1434h989v-242h-719v-330h661v-241h-661v-379h725v-242h-995zM557 1544l-231 322h202l121 -123l121 123h203l-232 -322h-184z" />
    <glyph glyph-name="ecaron" unicode="&#x11b;" horiz-adv-x="1177" 
d="M1102 446h-783q12 -117 87.5 -185t191.5 -68q101 0 168.5 47.5t112.5 138.5l192 -111q-73 -151 -189 -224t-288 -73q-141 0 -260 67t-190.5 191t-71.5 279q0 156 72 279.5t193.5 190t268.5 66.5q217 0 356.5 -143t139.5 -364v-91zM598 848q-101 0 -175 -59.5t-104 -153.5
h545q-19 100 -88 156.5t-178 56.5zM500 1126l-232 322h203l121 -123l121 123h202l-231 -322h-184z" />
    <glyph glyph-name="Gcircumflex" unicode="&#x11c;" horiz-adv-x="1597" 
d="M1298 0l-57 197q-145 -226 -436 -226q-148 0 -279 56t-226 153t-150.5 237t-55.5 300t59 299.5t159 237t237 153t289 55.5q213 0 378 -94t248 -256l-202 -147q-65 128 -175.5 194t-252.5 66q-95 0 -179.5 -36t-148 -100.5t-100.5 -160.5t-37 -211q0 -219 126 -357.5
t318 -138.5q175 0 273 91t120 233h-463v221h734v-766h-179zM496 1544l231 322h184l232 -322h-203l-121 123l-121 -123h-202z" />
    <glyph glyph-name="gcircumflex" unicode="&#x11d;" horiz-adv-x="1222" 
d="M141 18l246 -75q-12 -35 -12 -70q0 -52 59 -83.5t166 -31.5q250 0 250 279v131q-42 -69 -114.5 -110.5t-174.5 -41.5q-133 0 -244.5 64.5t-178 183t-66.5 266.5q0 111 40 208t107 163.5t156.5 104.5t187.5 38q190 0 287 -139v111h258v-946q0 -253 -137 -384.5
t-371 -131.5q-229 0 -358 92t-129 256q0 62 28 116zM590 819q-113 0 -190.5 -77t-77.5 -212t77.5 -211.5t190.5 -76.5q114 0 194 76.5t80 211.5t-80 212t-194 77zM307 1126l232 322h184l231 -322h-202l-121 123l-121 -123h-203z" />
    <glyph glyph-name="Gbreve" unicode="&#x11e;" horiz-adv-x="1597" 
d="M1298 0l-57 197q-145 -226 -436 -226q-148 0 -279 56t-226 153t-150.5 237t-55.5 300t59 299.5t159 237t237 153t289 55.5q213 0 378 -94t248 -256l-202 -147q-65 128 -175.5 194t-252.5 66q-95 0 -179.5 -36t-148 -100.5t-100.5 -160.5t-37 -211q0 -219 126 -357.5
t318 -138.5q175 0 273 91t120 233h-463v221h734v-766h-179zM907 1804h156q0 -100 -65.5 -165.5t-168.5 -65.5t-168 65t-65 166h156q0 -38 20.5 -63t56.5 -25t57 25t21 63z" />
    <glyph glyph-name="gbreve" unicode="&#x11f;" horiz-adv-x="1222" 
d="M141 18l246 -75q-12 -35 -12 -70q0 -52 59 -83.5t166 -31.5q250 0 250 279v131q-42 -69 -114.5 -110.5t-174.5 -41.5q-133 0 -244.5 64.5t-178 183t-66.5 266.5q0 111 40 208t107 163.5t156.5 104.5t187.5 38q190 0 287 -139v111h258v-946q0 -253 -137 -384.5
t-371 -131.5q-229 0 -358 92t-129 256q0 62 28 116zM590 819q-113 0 -190.5 -77t-77.5 -212t77.5 -211.5t190.5 -76.5q114 0 194 76.5t80 211.5t-80 212t-194 77zM688 1386h156q0 -100 -65 -165.5t-169 -65.5q-103 0 -168 65t-65 166h155q0 -38 21 -63t57 -25t57 25t21 63z
" />
    <glyph glyph-name="Gdotaccent" unicode="&#x120;" horiz-adv-x="1597" 
d="M1298 0l-57 197q-145 -226 -436 -226q-148 0 -279 56t-226 153t-150.5 237t-55.5 300t59 299.5t159 237t237 153t289 55.5q213 0 378 -94t248 -256l-202 -147q-65 128 -175.5 194t-252.5 66q-95 0 -179.5 -36t-148 -100.5t-100.5 -160.5t-37 -211q0 -219 126 -357.5
t318 -138.5q175 0 273 91t120 233h-463v221h734v-766h-179zM688 1581v270h283v-270h-283z" />
    <glyph glyph-name="gdotaccent" unicode="&#x121;" horiz-adv-x="1222" 
d="M141 18l246 -75q-12 -35 -12 -70q0 -52 59 -83.5t166 -31.5q250 0 250 279v131q-42 -69 -114.5 -110.5t-174.5 -41.5q-133 0 -244.5 64.5t-178 183t-66.5 266.5q0 111 40 208t107 163.5t156.5 104.5t187.5 38q190 0 287 -139v111h258v-946q0 -253 -137 -384.5
t-371 -131.5q-229 0 -358 92t-129 256q0 62 28 116zM590 819q-113 0 -190.5 -77t-77.5 -212t77.5 -211.5t190.5 -76.5q114 0 194 76.5t80 211.5t-80 212t-194 77zM469 1163v271h283v-271h-283z" />
    <glyph glyph-name="uni0122" unicode="&#x122;" horiz-adv-x="1597" 
d="M692 -373v250h258v-250l-184 -270l-59 22l75 248h-90zM1298 0l-57 197q-145 -226 -436 -226q-148 0 -279 56t-226 153t-150.5 237t-55.5 300t59 299.5t159 237t237 153t289 55.5q213 0 378 -94t248 -256l-202 -147q-65 128 -175.5 194t-252.5 66q-95 0 -179.5 -36
t-148 -100.5t-100.5 -160.5t-37 -211q0 -219 126 -357.5t318 -138.5q175 0 273 91t120 233h-463v221h734v-766h-179z" />
    <glyph glyph-name="uni0123" unicode="&#x123;" horiz-adv-x="1222" 
d="M702 1405v-252h-258v252l228 278l51 -36l-125 -242h104zM141 18l246 -75q-12 -35 -12 -70q0 -52 59 -83.5t166 -31.5q250 0 250 279v131q-42 -69 -114.5 -110.5t-174.5 -41.5q-133 0 -244.5 64.5t-178 183t-66.5 266.5q0 111 40 208t107 163.5t156.5 104.5t187.5 38
q190 0 287 -139v111h258v-946q0 -253 -137 -384.5t-371 -131.5q-229 0 -358 92t-129 256q0 62 28 116zM590 819q-113 0 -190.5 -77t-77.5 -212t77.5 -211.5t190.5 -76.5q114 0 194 76.5t80 211.5t-80 212t-194 77z" />
    <glyph glyph-name="Hcircumflex" unicode="&#x124;" horiz-adv-x="1466" 
d="M150 0v1434h270v-578h627v578h270v-1434h-270v606h-627v-606h-270zM410 1544l231 322h184l232 -322h-203l-121 123l-121 -123h-202z" />
    <glyph glyph-name="hcircumflex" unicode="&#x125;" horiz-adv-x="1228" 
d="M1100 686v-686h-258v586q0 102 -52 159.5t-153 57.5q-110 0 -180 -79.5t-70 -207.5v-516h-258v1434h258v-578q57 91 148 139.5t204 48.5q165 0 263 -97.5t98 -260.5zM88 1565l231 321h185l231 -321h-203l-120 123l-121 -123h-203z" />
    <glyph glyph-name="Hbar" unicode="&#x126;" horiz-adv-x="1560" 
d="M20 991v193h177v250h270v-250h627v250h270v-250h176v-193h-176v-991h-270v606h-627v-606h-270v991h-177zM467 856h627v135h-627v-135z" />
    <glyph glyph-name="hbar" unicode="&#x127;" horiz-adv-x="1245" 
d="M18 1130v197h127v107h258v-107h328v-197h-328v-274q57 91 148.5 139.5t204.5 48.5q165 0 262.5 -97.5t97.5 -260.5v-686h-258v586q0 102 -52 159.5t-153 57.5q-110 0 -180 -79.5t-70 -207.5v-516h-258v1130h-127z" />
    <glyph glyph-name="Itilde" unicode="&#x128;" horiz-adv-x="569" 
d="M150 0v1434h270v-1434h-270zM135 1679q-20 0 -33.5 -12.5t-13.5 -32.5q0 -21 14 -53l-151 -31q-29 45 -29 109q0 87 62 136.5t139 49.5q52 0 95 -14t70.5 -33.5t50.5 -39.5t47 -34t48 -14q20 0 33.5 12.5t13.5 32.5q0 21 -14 53l151 31q29 -45 29 -108q0 -89 -62 -138
t-139 -49q-52 0 -95 14t-70.5 34t-50.5 39.5t-47 33.5t-48 14z" />
    <glyph glyph-name="itilde" unicode="&#x129;" horiz-adv-x="512" 
d="M127 0v1016h258v-1016h-258zM106 1262q-20 0 -33.5 -12.5t-13.5 -32.5q0 -19 15 -54l-152 -30q-28 44 -28 108q0 87 61.5 136.5t138.5 49.5q64 0 115 -21t78 -46.5t58.5 -46.5t60.5 -21q20 0 33.5 12.5t13.5 32.5q0 19 -15 54l152 30q28 -44 28 -108q0 -89 -61.5 -138
t-138.5 -49q-52 0 -95 14t-70.5 34t-51 40t-47.5 34t-48 14z" />
    <glyph glyph-name="Imacron" unicode="&#x12a;" horiz-adv-x="569" 
d="M150 0v1434h270v-1434h-270zM31 1622v193h508v-193h-508z" />
    <glyph glyph-name="imacron" unicode="&#x12b;" horiz-adv-x="512" 
d="M127 0v1016h258v-1016h-258zM2 1204v193h508v-193h-508z" />
    <glyph glyph-name="Ibreve" unicode="&#x12c;" horiz-adv-x="569" 
d="M150 0v1434h270v-1434h-270zM362 1804h156q0 -101 -65 -166t-168 -65t-168.5 65.5t-65.5 165.5h156q0 -38 21 -63t57 -25t56.5 25t20.5 63z" />
    <glyph glyph-name="ibreve" unicode="&#x12d;" horiz-adv-x="512" 
d="M127 0v1016h258v-1016h-258zM334 1386h155q0 -101 -65 -166t-168 -65t-168 65t-65 166h155q0 -38 21 -63t57 -25t57 25t21 63z" />
    <glyph glyph-name="Iogonek" unicode="&#x12e;" horiz-adv-x="569" 
d="M150 0v1434h270v-1434q-148 -85 -148 -160q0 -37 23.5 -57.5t60.5 -20.5q22 0 45 5l23 -158q-58 -15 -123 -15q-92 0 -162.5 52t-70.5 141q0 128 120 213h-38z" />
    <glyph glyph-name="iogonek" unicode="&#x12f;" horiz-adv-x="512" 
d="M127 0v1016h258v-1016q-147 -84 -147 -160q0 -37 23.5 -57.5t60.5 -20.5q22 0 45 5l22 -158q-58 -15 -123 -15q-92 0 -162.5 52t-70.5 141q0 127 121 213h-27zM115 1163v271h282v-271h-282z" />
    <glyph glyph-name="Idotaccent" unicode="&#x130;" horiz-adv-x="569" 
d="M150 0v1434h270v-1434h-270zM143 1581v270h283v-270h-283z" />
    <glyph glyph-name="dotlessi" unicode="&#x131;" horiz-adv-x="512" 
d="M129 0v1016h258v-1016h-258z" />
    <glyph glyph-name="IJ" unicode="&#x132;" horiz-adv-x="1638" 
d="M150 0v1434h270v-1434h-270zM1526 1434v-996q0 -208 -124 -337.5t-345 -129.5q-222 0 -345.5 127.5t-123.5 360.5l270 -29q2 -106 49.5 -157.5t149.5 -51.5q96 0 147 60t51 161v992h271z" />
    <glyph glyph-name="ij" unicode="&#x133;" horiz-adv-x="1003" 
d="M127 0v1016h258v-1016h-258zM115 1163v271h282v-271h-282zM391 -412l33 234q46 -17 80 -17q61 0 87.5 36t26.5 110v1065h259v-1094q0 -172 -83.5 -263t-248.5 -91q-76 0 -154 20zM606 1163v271h283v-271h-283z" />
    <glyph glyph-name="Jcircumflex" unicode="&#x134;" horiz-adv-x="1136" 
d="M1024 1434v-996q0 -208 -124 -337.5t-345 -129.5q-222 0 -345.5 127.5t-123.5 360.5l270 -29q2 -106 49.5 -157.5t149.5 -51.5q96 0 147.5 60t51.5 161v992h270zM459 1544l231 322h184l232 -322h-203l-121 123l-120 -123h-203z" />
    <glyph glyph-name="jcircumflex" unicode="&#x135;" horiz-adv-x="512" 
d="M-100 -412l32 234q46 -17 80 -17q61 0 88 36t27 110v1065h258v-1094q0 -172 -83.5 -263t-248.5 -91q-75 0 -153 20zM-72 1126l232 322h184l231 -322h-202l-121 123l-121 -123h-203z" />
    <glyph glyph-name="uni0136" unicode="&#x136;" horiz-adv-x="1347" 
d="M563 -373v250h258v-250l-184 -270l-59 22l75 248h-90zM1276 1434l-508 -533l541 -901h-316l-420 700l-153 -161v-539h-270v1434h270v-553l74 82q8 8 22 25.5t16 19.5l402 426h342z" />
    <glyph glyph-name="uni0137" unicode="&#x137;" horiz-adv-x="1107" 
d="M440 -373v250h258v-250l-184 -270l-59 22l75 248h-90zM387 1434v-725l309 307h320l-371 -363l420 -653h-297l-303 475l-78 -76v-399h-258v1434h258z" />
    <glyph glyph-name="kgreenlandic" unicode="&#x138;" horiz-adv-x="1107" 
d="M387 1016v-324l309 324h320l-381 -389l430 -627h-297l-311 444l-70 -71v-373h-258v1016h258z" />
    <glyph glyph-name="Lacute" unicode="&#x139;" horiz-adv-x="1222" 
d="M150 0v1434h270v-1184h719v-250h-989zM150 1544l139 324h313l-254 -324h-198z" />
    <glyph glyph-name="lacute" unicode="&#x13a;" horiz-adv-x="516" 
d="M129 0v1434h258v-1434h-258zM129 1544l139 324h314l-254 -324h-199z" />
    <glyph glyph-name="uni013B" unicode="&#x13b;" horiz-adv-x="1222" 
d="M526 -373v250h258v-250l-184 -270l-59 22l75 248h-90zM150 0v1434h270v-1184h719v-250h-989z" />
    <glyph glyph-name="uni013C" unicode="&#x13c;" horiz-adv-x="516" 
d="M129 -373v250h258v-250l-184 -270l-60 22l76 248h-90zM129 0v1434h258v-1434h-258z" />
    <glyph glyph-name="Lcaron" unicode="&#x13d;" horiz-adv-x="1222" 
d="M854 1192v242h244v-242l-232 -277l-41 33l123 244h-94zM150 0v1434h270v-1184h719v-250h-989z" />
    <glyph glyph-name="lcaron" unicode="&#x13e;" horiz-adv-x="733" 
d="M516 1217v217h217v-222l-151 -221l-54 31l80 195h-92zM129 0v1434h258v-1434h-258z" />
    <glyph glyph-name="Ldot" unicode="&#x13f;" horiz-adv-x="1222" 
d="M150 0v1434h270v-1184h719v-250h-989zM739 580v274h275v-274h-275z" />
    <glyph glyph-name="ldot" unicode="&#x140;" horiz-adv-x="790" 
d="M129 0v1434h258v-1434h-258zM516 580v274h275v-274h-275z" />
    <glyph glyph-name="Lslash" unicode="&#x141;" horiz-adv-x="1249" 
d="M20 262v250l156 98v824h270v-652l318 203v-250l-318 -203v-282h719v-250h-989v360z" />
    <glyph glyph-name="lslash" unicode="&#x142;" horiz-adv-x="585" 
d="M31 283v225l133 84v842h258v-678l133 86v-226l-133 -86v-530h-258v367z" />
    <glyph glyph-name="Nacute" unicode="&#x143;" horiz-adv-x="1495" 
d="M150 0v1434h274l598 -912q6 -9 27 -45q23 -40 34 -67v1024h263v-1434h-275l-598 918q-6 9 -27 45q-27 48 -34 67v-1030h-262zM584 1544l139 324h313l-254 -324h-198z" />
    <glyph glyph-name="nacute" unicode="&#x144;" 
d="M1087 692v-692h-258v586q0 217 -206 217q-104 0 -170 -79.5t-66 -207.5v-516h-258v1016h258v-164q58 90 147 141t197 51q164 0 260 -96t96 -256zM444 1126l140 324h313l-254 -324h-199z" />
    <glyph glyph-name="uni0145" unicode="&#x145;" horiz-adv-x="1495" 
d="M618 -373v250h259v-250l-185 -270l-59 22l76 248h-91zM150 0v1434h274l598 -912q6 -9 27 -45q23 -40 34 -67v1024h263v-1434h-275l-598 918q-6 9 -27 45q-27 48 -34 67v-1030h-262z" />
    <glyph glyph-name="uni0146" unicode="&#x146;" 
d="M479 -373v250h258v-250l-184 -270l-59 22l75 248h-90zM1087 692v-692h-258v586q0 217 -206 217q-104 0 -170 -79.5t-66 -207.5v-516h-258v1016h258v-164q58 90 147 141t197 51q164 0 260 -96t96 -256z" />
    <glyph glyph-name="Ncaron" unicode="&#x147;" horiz-adv-x="1495" 
d="M150 0v1434h274l598 -912q6 -9 27 -45q23 -40 34 -67v1024h263v-1434h-275l-598 918q-6 9 -27 45q-27 48 -34 67v-1030h-262zM655 1544l-231 322h203l121 -123l120 123h203l-231 -322h-185z" />
    <glyph glyph-name="ncaron" unicode="&#x148;" 
d="M1087 692v-692h-258v586q0 217 -206 217q-104 0 -170 -79.5t-66 -207.5v-516h-258v1016h258v-164q58 90 147 141t197 51q164 0 260 -96t96 -256zM537 1126l-232 322h203l121 -123l121 123h202l-231 -322h-184z" />
    <glyph glyph-name="napostrophe" unicode="&#x149;" horiz-adv-x="1370" 
d="M100 1257v238h238v-238l-197 -225l-49 35l109 190h-101zM1241 692v-692h-258v586q0 103 -51 160t-156 57q-103 0 -169 -79.5t-66 -207.5v-516h-258v1016h258v-164q58 90 147 141t197 51q164 0 260 -96t96 -256z" />
    <glyph glyph-name="Eng" unicode="&#x14a;" horiz-adv-x="1495" 
d="M150 0v1434h274l598 -912q6 -9 27 -45q23 -40 34 -67v1024h263v-1414q0 -223 -101.5 -344.5t-312.5 -121.5q-131 0 -215 38l96 238q46 -27 100 -27q85 0 121.5 47.5t36.5 149.5l-598 918q-6 9 -27 45q-27 48 -34 67v-1030h-262z" />
    <glyph glyph-name="eng" unicode="&#x14b;" 
d="M602 -412l33 234q46 -17 80 -17q61 0 87.5 36t26.5 110v635q0 217 -206 217q-104 0 -170 -79.5t-66 -207.5v-516h-258v1016h258v-164q127 192 342 192q161 0 259.5 -97t98.5 -255v-770q0 -172 -83 -263t-248 -91q-76 0 -154 20z" />
    <glyph glyph-name="Omacron" unicode="&#x14c;" horiz-adv-x="1662" 
d="M1569 717q0 -211 -96.5 -382t-265.5 -267.5t-376 -96.5q-155 0 -292 57t-234.5 155.5t-154 237t-56.5 296.5q0 211 96 381.5t265 267t376 96.5t376 -96.5t265.5 -267t96.5 -381.5zM831 221q200 0 331.5 135t131.5 361t-131.5 360.5t-331.5 134.5t-331 -134.5t-131 -360.5
q0 -227 131 -361.5t331 -134.5zM578 1622v193h507v-193h-507z" />
    <glyph glyph-name="omacron" unicode="&#x14d;" horiz-adv-x="1253" 
d="M1182 508q0 -103 -31 -191.5t-84 -151t-124 -107t-151 -66t-165 -21.5t-165 21.5t-151 66t-124 107t-84 151t-31 191.5t31 191t84 151t124 107t151 65.5t165 21.5t165 -21.5t151 -65.5t124 -107t84 -151t31 -191zM627 213q120 0 206.5 80t86.5 215t-86.5 215t-206.5 80
t-206.5 -80t-86.5 -215t86.5 -215t206.5 -80zM373 1204v193h508v-193h-508z" />
    <glyph glyph-name="Obreve" unicode="&#x14e;" horiz-adv-x="1662" 
d="M1569 717q0 -211 -96.5 -382t-265.5 -267.5t-376 -96.5q-155 0 -292 57t-234.5 155.5t-154 237t-56.5 296.5q0 211 96 381.5t265 267t376 96.5t376 -96.5t265.5 -267t96.5 -381.5zM831 221q200 0 331.5 135t131.5 361t-131.5 360.5t-331.5 134.5t-331 -134.5t-131 -360.5
q0 -227 131 -361.5t331 -134.5zM909 1804h156q0 -100 -65.5 -165.5t-168.5 -65.5t-168 65t-65 166h156q0 -38 20.5 -63t56.5 -25t57 25t21 63z" />
    <glyph glyph-name="obreve" unicode="&#x14f;" horiz-adv-x="1253" 
d="M1182 508q0 -103 -31 -191.5t-84 -151t-124 -107t-151 -66t-165 -21.5t-165 21.5t-151 66t-124 107t-84 151t-31 191.5t31 191t84 151t124 107t151 65.5t165 21.5t165 -21.5t151 -65.5t124 -107t84 -151t31 -191zM627 213q120 0 206.5 80t86.5 215t-86.5 215t-206.5 80
t-206.5 -80t-86.5 -215t86.5 -215t206.5 -80zM705 1386h155q0 -101 -65 -166t-168 -65t-168.5 65.5t-65.5 165.5h156q0 -38 21 -63t57 -25t57 25t21 63z" />
    <glyph glyph-name="Ohungarumlaut" unicode="&#x150;" horiz-adv-x="1662" 
d="M1569 717q0 -211 -96.5 -382t-265.5 -267.5t-376 -96.5q-155 0 -292 57t-234.5 155.5t-154 237t-56.5 296.5q0 211 96 381.5t265 267t376 96.5t376 -96.5t265.5 -267t96.5 -381.5zM831 221q200 0 331.5 135t131.5 361t-131.5 360.5t-331.5 134.5t-331 -134.5t-131 -360.5
q0 -227 131 -361.5t331 -134.5zM483 1544l140 324h313l-254 -324h-199zM870 1544l140 324h313l-254 -324h-199z" />
    <glyph glyph-name="ohungarumlaut" unicode="&#x151;" horiz-adv-x="1253" 
d="M1182 508q0 -103 -31 -191.5t-84 -151t-124 -107t-151 -66t-165 -21.5t-165 21.5t-151 66t-124 107t-84 151t-31 191.5t31 191t84 151t124 107t151 65.5t165 21.5t165 -21.5t151 -65.5t124 -107t84 -151t31 -191zM627 213q120 0 206.5 80t86.5 215t-86.5 215t-206.5 80
t-206.5 -80t-86.5 -215t86.5 -215t206.5 -80zM276 1126l140 324h313l-254 -324h-199zM664 1126l139 324h313l-254 -324h-198z" />
    <glyph glyph-name="OE" unicode="&#x152;" horiz-adv-x="2404" 
d="M1294 0v178q-182 -207 -463 -207q-155 0 -292 57t-234.5 155.5t-154 237t-56.5 296.5q0 211 96 381.5t265 267t376 96.5q298 0 463 -190v162h990v-242h-719v-330h661v-241h-661v-379h725v-242h-996zM831 221q198 0 330.5 137.5t132.5 358.5q0 226 -131.5 360.5
t-331.5 134.5t-331 -134.5t-131 -360.5q0 -227 131 -361.5t331 -134.5z" />
    <glyph glyph-name="oe" unicode="&#x153;" horiz-adv-x="2045" 
d="M1964 446h-782q12 -117 87 -185t191 -68q101 0 168.5 47.5t112.5 138.5l192 -111q-73 -151 -189 -224t-288 -73q-117 0 -221.5 49t-177.5 136q-78 -90 -191 -137.5t-239 -47.5q-85 0 -165 21.5t-151 66t-124 107t-84 151t-31 191.5t31 191t84 151t124 107t151 65.5
t165 21.5q125 0 238.5 -48.5t191.5 -139.5q75 88 182 138t229 50q217 0 356.5 -143t139.5 -364v-91zM627 213q120 0 206.5 80t86.5 215t-86.5 215t-206.5 80t-206.5 -80t-86.5 -215t86.5 -215t206.5 -80zM1460 848q-101 0 -174.5 -59t-103.5 -154h544q-19 100 -88 156.5
t-178 56.5z" />
    <glyph glyph-name="Racute" unicode="&#x154;" horiz-adv-x="1366" 
d="M981 0l-332 582h-229v-582h-270v1434h612q236 0 373 -110t137 -296q0 -302 -328 -422l346 -606h-309zM420 1196v-377h342q121 0 180 50t59 139t-59 138.5t-180 49.5h-342zM477 1544l139 324h314l-254 -324h-199z" />
    <glyph glyph-name="racute" unicode="&#x155;" horiz-adv-x="786" 
d="M758 1032l-41 -244q-40 15 -84 15q-114 0 -180 -84.5t-66 -216.5v-502h-258v1016h258v-162q93 190 283 190q48 0 88 -12zM270 1126l140 324h313l-254 -324h-199z" />
    <glyph glyph-name="uni0156" unicode="&#x156;" horiz-adv-x="1366" 
d="M559 -373v250h258v-250l-184 -270l-60 22l76 248h-90zM981 0l-332 582h-229v-582h-270v1434h612q236 0 373 -110t137 -296q0 -302 -328 -422l346 -606h-309zM420 1196v-377h342q121 0 180 50t59 139t-59 138.5t-180 49.5h-342z" />
    <glyph glyph-name="uni0157" unicode="&#x157;" horiz-adv-x="786" 
d="M129 -373v250h258v-250l-184 -270l-60 22l76 248h-90zM758 1032l-41 -244q-40 15 -84 15q-114 0 -180 -84.5t-66 -216.5v-502h-258v1016h258v-162q93 190 283 190q48 0 88 -12z" />
    <glyph glyph-name="Rcaron" unicode="&#x158;" horiz-adv-x="1366" 
d="M981 0l-332 582h-229v-582h-270v1434h612q236 0 373 -110t137 -296q0 -302 -328 -422l346 -606h-309zM420 1196v-377h342q121 0 180 50t59 139t-59 138.5t-180 49.5h-342zM569 1544l-231 322h203l121 -123l120 123h203l-231 -322h-185z" />
    <glyph glyph-name="rcaron" unicode="&#x159;" horiz-adv-x="786" 
d="M758 1032l-41 -244q-40 15 -84 15q-114 0 -180 -84.5t-66 -216.5v-502h-258v1016h258v-162q93 190 283 190q48 0 88 -12zM322 1126l-232 322h203l121 -123l121 123h202l-231 -322h-184z" />
    <glyph glyph-name="Sacute" unicode="&#x15a;" horiz-adv-x="1335" 
d="M412 1075q0 -83 81.5 -134.5t264.5 -88.5q239 -50 354 -155t115 -285q0 -184 -146.5 -312.5t-388.5 -128.5q-255 0 -406.5 125.5t-195.5 333.5l238 121q31 -167 117.5 -254.5t244.5 -87.5q122 0 194 52.5t72 139.5q0 95 -85 148t-269 90q-205 39 -326.5 147.5
t-121.5 282.5q0 178 139 285.5t364 107.5q411 0 545 -368l-213 -123q-85 254 -338 254q-102 0 -170.5 -38.5t-68.5 -111.5zM494 1544l139 324h313l-254 -324h-198z" />
    <glyph glyph-name="sacute" unicode="&#x15b;" horiz-adv-x="1024" 
d="M369 766q0 -94 239 -143q180 -37 260 -111t80 -203q0 -147 -108.5 -242.5t-292.5 -95.5q-92 0 -170 24.5t-134 68.5t-95.5 96.5t-65.5 115.5l207 132q34 -101 100.5 -160.5t161.5 -59.5q65 0 112.5 30t47.5 83q0 49 -50 78t-167 53q-162 32 -258.5 110t-96.5 208
q0 91 54.5 159.5t139 101.5t185.5 33q162 0 259.5 -61.5t160.5 -194.5l-186 -110q-32 85 -92 131.5t-138 46.5q-67 0 -110 -22.5t-43 -67.5zM348 1126l139 324h314l-254 -324h-199z" />
    <glyph glyph-name="Scircumflex" unicode="&#x15c;" horiz-adv-x="1335" 
d="M412 1075q0 -83 81.5 -134.5t264.5 -88.5q239 -50 354 -155t115 -285q0 -184 -146.5 -312.5t-388.5 -128.5q-255 0 -406.5 125.5t-195.5 333.5l238 121q31 -167 117.5 -254.5t244.5 -87.5q122 0 194 52.5t72 139.5q0 95 -85 148t-269 90q-205 39 -326.5 147.5
t-121.5 282.5q0 178 139 285.5t364 107.5q411 0 545 -368l-213 -123q-85 254 -338 254q-102 0 -170.5 -38.5t-68.5 -111.5zM344 1544l231 322h185l231 -322h-203l-120 123l-121 -123h-203z" />
    <glyph glyph-name="scircumflex" unicode="&#x15d;" horiz-adv-x="1024" 
d="M369 766q0 -94 239 -143q180 -37 260 -111t80 -203q0 -147 -108.5 -242.5t-292.5 -95.5q-92 0 -170 24.5t-134 68.5t-95.5 96.5t-65.5 115.5l207 132q34 -101 100.5 -160.5t161.5 -59.5q65 0 112.5 30t47.5 83q0 49 -50 78t-167 53q-162 32 -258.5 110t-96.5 208
q0 91 54.5 159.5t139 101.5t185.5 33q162 0 259.5 -61.5t160.5 -194.5l-186 -110q-32 85 -92 131.5t-138 46.5q-67 0 -110 -22.5t-43 -67.5zM188 1126l232 322h184l232 -322h-203l-121 123l-121 -123h-203z" />
    <glyph glyph-name="Scedilla" unicode="&#x15e;" horiz-adv-x="1335" 
d="M604 -233l-76 67l50 146q-207 28 -328.5 146.5t-159.5 303.5l238 121q31 -167 117.5 -254.5t244.5 -87.5q122 0 194 52.5t72 139.5q0 95 -85 148t-269 90q-205 39 -326.5 147.5t-121.5 282.5q0 178 139 285.5t364 107.5q411 0 545 -368l-213 -123q-85 254 -338 254
q-102 0 -170.5 -38.5t-68.5 -111.5q0 -83 81.5 -134.5t264.5 -88.5q239 -50 354 -155t115 -285q0 -86 -36.5 -164.5t-102 -139.5t-165 -98t-218.5 -39l-50 -84q31 19 82 19q72 0 116 -44t44 -116q0 -78 -56.5 -123t-138.5 -45q-156 0 -192 125l135 35q9 -45 57 -45
q24 0 38 13.5t14 37.5q0 59 -58 59q-50 0 -92 -36z" />
    <glyph glyph-name="scedilla" unicode="&#x15f;" horiz-adv-x="1024" 
d="M463 -229l-76 67l49 144q-130 25 -218.5 104.5t-135.5 189.5l207 132q34 -101 100.5 -160.5t161.5 -59.5q65 0 112.5 30t47.5 83q0 49 -50 78t-167 53q-162 32 -258.5 110t-96.5 208q0 91 54.5 159.5t139 101.5t185.5 33q162 0 259.5 -61.5t160.5 -194.5l-186 -110
q-32 85 -92 131.5t-138 46.5q-67 0 -110 -22.5t-43 -67.5q0 -94 239 -143q180 -37 260 -111t80 -203q0 -143 -105.5 -238.5t-281.5 -99.5l-47 -80q31 19 82 19q72 0 116 -44t44 -116q0 -78 -56.5 -123t-138.5 -45q-156 0 -192 125l135 35q9 -45 57 -45q24 0 37.5 13.5
t13.5 37.5q0 59 -57 59q-50 0 -92 -36z" />
    <glyph glyph-name="Scaron" unicode="&#x160;" horiz-adv-x="1335" 
d="M412 1075q0 -83 81.5 -134.5t264.5 -88.5q239 -50 354 -155t115 -285q0 -184 -146.5 -312.5t-388.5 -128.5q-255 0 -406.5 125.5t-195.5 333.5l238 121q31 -167 117.5 -254.5t244.5 -87.5q122 0 194 52.5t72 139.5q0 95 -85 148t-269 90q-205 39 -326.5 147.5
t-121.5 282.5q0 178 139 285.5t364 107.5q411 0 545 -368l-213 -123q-85 254 -338 254q-102 0 -170.5 -38.5t-68.5 -111.5zM575 1544l-231 322h203l121 -123l120 123h203l-231 -322h-185z" />
    <glyph glyph-name="scaron" unicode="&#x161;" horiz-adv-x="1024" 
d="M369 766q0 -94 239 -143q180 -37 260 -111t80 -203q0 -147 -108.5 -242.5t-292.5 -95.5q-92 0 -170 24.5t-134 68.5t-95.5 96.5t-65.5 115.5l207 132q34 -101 100.5 -160.5t161.5 -59.5q65 0 112.5 30t47.5 83q0 49 -50 78t-167 53q-162 32 -258.5 110t-96.5 208
q0 91 54.5 159.5t139 101.5t185.5 33q162 0 259.5 -61.5t160.5 -194.5l-186 -110q-32 85 -92 131.5t-138 46.5q-67 0 -110 -22.5t-43 -67.5zM420 1126l-232 322h203l121 -123l121 123h203l-232 -322h-184z" />
    <glyph glyph-name="uni0162" unicode="&#x162;" horiz-adv-x="1212" 
d="M559 -229l-76 67l56 162h-68v1184h-438v250h1147v-250h-439v-1184h-67l-64 -109q31 19 82 19q72 0 116 -44t44 -116q0 -78 -56.5 -123t-138.5 -45q-156 0 -192 125l135 35q9 -45 57 -45q24 0 38 13.5t14 37.5q0 59 -58 59q-50 0 -92 -36z" />
    <glyph glyph-name="uni0163" unicode="&#x163;" horiz-adv-x="765" 
d="M367 -229l-76 67l59 170q-143 76 -143 287v512h-158v209h158v274h258v-274h221v-209h-221v-463q0 -143 129 -143q40 0 86 12l25 -213q-85 -29 -173 -29q-19 0 -65 4l-49 -84q31 19 82 19q72 0 115.5 -44t43.5 -116q0 -79 -56 -123.5t-138 -44.5q-157 0 -193 125l136 35
q9 -45 57 -45q24 0 37.5 13.5t13.5 37.5q0 59 -57 59q-50 0 -92 -36z" />
    <glyph glyph-name="Tcaron" unicode="&#x164;" horiz-adv-x="1212" 
d="M33 1184v250h1147v-250h-439v-1184h-270v1184h-438zM514 1544l-231 322h202l121 -123l121 123h203l-232 -322h-184z" />
    <glyph glyph-name="tcaron" unicode="&#x165;" horiz-adv-x="765" 
d="M590 1343v218h217v-222l-152 -221l-53 31l80 194h-92zM49 807v209h158v274h258v-274h221v-209h-221v-463q0 -143 129 -143q40 0 86 12l25 -213q-85 -29 -173 -29q-325 0 -325 324v512h-158z" />
    <glyph glyph-name="Tbar" unicode="&#x166;" horiz-adv-x="1212" 
d="M33 1184v250h1147v-250h-439v-287h283v-192h-283v-705h-270v705h-283v192h283v287h-438z" />
    <glyph glyph-name="tbar" unicode="&#x167;" horiz-adv-x="765" 
d="M49 807v209h158v274h258v-274h221v-209h-221v-176h194v-197h-194v-90q0 -143 129 -143q40 0 86 12l25 -213q-85 -29 -173 -29q-325 0 -325 324v139h-133v197h133v176h-158z" />
    <glyph glyph-name="Utilde" unicode="&#x168;" horiz-adv-x="1433" 
d="M1305 1434v-891q0 -179 -77.5 -310t-209 -196.5t-301.5 -65.5t-301.5 65.5t-209 196.5t-77.5 310v891h270v-865q0 -166 84.5 -257t233.5 -91t233 91t84 257v865h271zM567 1679q-20 0 -33.5 -12.5t-13.5 -32.5q0 -18 15 -53l-152 -31q-29 45 -29 109q0 87 62 136.5
t139 49.5q52 0 95 -14t70.5 -33.5t50.5 -39.5t47 -34t48 -14q20 0 33.5 12.5t13.5 32.5q0 21 -14 53l152 31q28 -44 28 -108q0 -89 -61.5 -138t-138.5 -49q-64 0 -115 21t-78 46.5t-58.5 46.5t-60.5 21z" />
    <glyph glyph-name="utilde" unicode="&#x169;" 
d="M129 385v631h258v-572q0 -231 207 -231q108 0 171.5 77.5t63.5 201.5v524h258v-1016h-258v160q-50 -92 -132 -140.5t-191 -48.5q-166 0 -271.5 109t-105.5 305zM459 1262q-20 0 -33.5 -12.5t-13.5 -32.5q0 -22 14 -54l-152 -30q-28 44 -28 108q0 87 61.5 136.5
t138.5 49.5q64 0 115 -21t78 -46.5t58.5 -46.5t60.5 -21q20 0 33.5 12.5t13.5 32.5q0 22 -14 54l151 30q29 -45 29 -108q0 -89 -62 -138t-139 -49q-52 0 -95 14t-70.5 34t-50.5 40t-47 34t-48 14z" />
    <glyph glyph-name="Umacron" unicode="&#x16a;" horiz-adv-x="1433" 
d="M1305 1434v-891q0 -179 -77.5 -310t-209 -196.5t-301.5 -65.5t-301.5 65.5t-209 196.5t-77.5 310v891h270v-865q0 -166 84.5 -257t233.5 -91t233 91t84 257v865h271zM463 1622v193h508v-193h-508z" />
    <glyph glyph-name="umacron" unicode="&#x16b;" 
d="M129 385v631h258v-572q0 -231 207 -231q108 0 171.5 77.5t63.5 201.5v524h258v-1016h-258v160q-50 -92 -132 -140.5t-191 -48.5q-166 0 -271.5 109t-105.5 305zM354 1204v193h508v-193h-508z" />
    <glyph glyph-name="Ubreve" unicode="&#x16c;" horiz-adv-x="1433" 
d="M1305 1434v-891q0 -179 -77.5 -310t-209 -196.5t-301.5 -65.5t-301.5 65.5t-209 196.5t-77.5 310v891h270v-865q0 -166 84.5 -257t233.5 -91t233 91t84 257v865h271zM795 1804h155q0 -101 -65 -166t-168 -65t-168.5 65.5t-65.5 165.5h156q0 -38 21 -63t57 -25t57 25
t21 63z" />
    <glyph glyph-name="ubreve" unicode="&#x16d;" 
d="M129 385v631h258v-572q0 -231 207 -231q108 0 171.5 77.5t63.5 201.5v524h258v-1016h-258v160q-50 -92 -132 -140.5t-191 -48.5q-166 0 -271.5 109t-105.5 305zM686 1386h156q0 -100 -65 -165.5t-169 -65.5q-103 0 -168 65t-65 166h155q0 -38 21 -63t57 -25t57 25t21 63z
" />
    <glyph glyph-name="Uring" unicode="&#x16e;" horiz-adv-x="1433" 
d="M1305 1434v-891q0 -179 -77.5 -310t-209 -196.5t-301.5 -65.5t-301.5 65.5t-209 196.5t-77.5 310v891h270v-865q0 -166 84.5 -257t233.5 -91t233 91t84 257v865h271zM520 1718q0 82 57.5 138.5t139.5 56.5t139 -56.5t57 -138.5t-57 -138t-139 -56t-139.5 56.5
t-57.5 137.5zM649 1718q0 -32 18.5 -50.5t49.5 -18.5t49 18.5t18 50.5t-18 51t-49 19t-49.5 -19t-18.5 -51z" />
    <glyph glyph-name="uring" unicode="&#x16f;" 
d="M129 385v631h258v-572q0 -231 207 -231q108 0 171.5 77.5t63.5 201.5v524h258v-1016h-258v160q-50 -92 -132 -140.5t-191 -48.5q-166 0 -271.5 109t-105.5 305zM412 1300q0 82 57 138.5t139 56.5t139.5 -56.5t57.5 -138.5q0 -81 -57.5 -137.5t-139.5 -56.5t-139 56
t-57 138zM541 1300q0 -32 18 -50.5t49 -18.5t49.5 18.5t18.5 50.5t-18.5 51t-49.5 19t-49 -19t-18 -51z" />
    <glyph glyph-name="Uhungarumlaut" unicode="&#x170;" horiz-adv-x="1433" 
d="M1305 1434v-891q0 -179 -77.5 -310t-209 -196.5t-301.5 -65.5t-301.5 65.5t-209 196.5t-77.5 310v891h270v-865q0 -166 84.5 -257t233.5 -91t233 91t84 257v865h271zM385 1544l139 324h314l-254 -324h-199zM772 1544l139 324h314l-254 -324h-199z" />
    <glyph glyph-name="uhungarumlaut" unicode="&#x171;" 
d="M129 385v631h258v-572q0 -231 207 -231q108 0 171.5 77.5t63.5 201.5v524h258v-1016h-258v160q-50 -92 -132 -140.5t-191 -48.5q-166 0 -271.5 109t-105.5 305zM266 1126l140 324h313l-254 -324h-199zM653 1126l140 324h313l-254 -324h-199z" />
    <glyph glyph-name="Uogonek" unicode="&#x172;" horiz-adv-x="1433" 
d="M569 -213q0 106 88 184q-234 18 -381 169.5t-147 402.5v891h270v-865q0 -166 84.5 -257t233.5 -91t233 91t84 257v865h271v-891q0 -209 -104 -347.5t-279 -195.5q-70 -21 -109 -59t-39 -91q0 -39 22 -63.5t62 -24.5q22 0 45 5l23 -158q-58 -15 -123 -15q-92 0 -163 52
t-71 141z" />
    <glyph glyph-name="uogonek" unicode="&#x173;" 
d="M735 -213q0 127 121 213h-27v160q-50 -92 -132 -140.5t-191 -48.5q-166 0 -271.5 109t-105.5 305v631h258v-572q0 -231 207 -231q108 0 171.5 77.5t63.5 201.5v524h258v-1016q-147 -84 -147 -160q0 -37 23.5 -57.5t60.5 -20.5q22 0 45 5l23 -158q-58 -15 -123 -15
q-92 0 -163 52t-71 141z" />
    <glyph glyph-name="Wcircumflex" unicode="&#x174;" horiz-adv-x="1929" 
d="M406 0l-396 1434h285l227 -906q7 -35 15 -59q4 -18 10.5 -51.5t9.5 -44.5q3 11 10 45.5t11 52.5q6 17 14 59l233 904h279l233 -904q7 -35 15 -59q4 -18 10.5 -52.5t9.5 -45.5q3 11 10 44.5t11 51.5q5 16 14 59l227 906h285l-395 -1434h-291l-268 1040l-269 -1040h-290z
M641 1544l231 322h185l231 -322h-203l-120 123l-121 -123h-203z" />
    <glyph glyph-name="wcircumflex" unicode="&#x175;" horiz-adv-x="1462" 
d="M854 1016l182 -680l164 680h250l-283 -1016h-249l-187 698l-186 -698h-250l-283 1016h250l164 -680l182 680h246zM408 1126l231 322h184l232 -322h-203l-121 123l-121 -123h-202z" />
    <glyph glyph-name="Ycircumflex" unicode="&#x176;" horiz-adv-x="1232" 
d="M752 561v-561h-271v561l-473 873h297l266 -510q3 -6 9 -19t8 -16l28 -70q4 13 14.5 36.5t14.5 33.5q2 3 8 16t9 19l266 510h297zM293 1544l231 322h185l231 -322h-203l-121 123l-120 -123h-203z" />
    <glyph glyph-name="ycircumflex" unicode="&#x177;" horiz-adv-x="1118" 
d="M147 -410l41 240q48 -25 93 -25q42 0 68.5 22.5t45.5 74.5l33 90l-418 1024h293l262 -660l250 660h293l-483 -1200q-53 -132 -134 -190t-202 -58q-81 0 -142 22zM236 1126l231 322h184l232 -322h-203l-121 123l-121 -123h-202z" />
    <glyph glyph-name="Ydieresis" unicode="&#x178;" horiz-adv-x="1232" 
d="M752 561v-561h-271v561l-473 873h297l266 -510q3 -6 9 -19t8 -16l28 -70q4 13 14.5 36.5t14.5 33.5q2 3 8 16t9 19l266 510h297zM680 1597v254h242v-254h-242zM311 1597v254h242v-254h-242z" />
    <glyph glyph-name="Zacute" unicode="&#x179;" horiz-adv-x="1257" 
d="M98 1184v250h1049v-250l-750 -934h785v-250h-1110v246l753 938h-727zM444 1544l140 324h313l-254 -324h-199z" />
    <glyph glyph-name="zacute" unicode="&#x17a;" horiz-adv-x="1015" 
d="M371 209h571v-209h-868v209l534 598h-512v209h811v-209zM324 1126l139 324h313l-254 -324h-198z" />
    <glyph glyph-name="Zdotaccent" unicode="&#x17b;" horiz-adv-x="1257" 
d="M98 1184v250h1049v-250l-750 -934h785v-250h-1110v246l753 938h-727zM487 1581v270h283v-270h-283z" />
    <glyph glyph-name="zdotaccent" unicode="&#x17c;" horiz-adv-x="1015" 
d="M371 209h571v-209h-868v209l534 598h-512v209h811v-209zM367 1163v271h282v-271h-282z" />
    <glyph glyph-name="Zcaron" unicode="&#x17d;" horiz-adv-x="1257" 
d="M98 1184v250h1049v-250l-750 -934h785v-250h-1110v246l753 938h-727zM537 1544l-232 322h203l121 -123l121 123h202l-231 -322h-184z" />
    <glyph glyph-name="zcaron" unicode="&#x17e;" horiz-adv-x="1015" 
d="M371 209h571v-209h-868v209l534 598h-512v209h811v-209zM416 1126l-232 322h203l121 -123l121 123h202l-231 -322h-184z" />
    <glyph glyph-name="longs" unicode="&#x17f;" horiz-adv-x="700" 
d="M39 807v209h147v143q0 183 99 280t262 97q67 0 129 -23l-45 -227q-37 12 -72 12q-115 0 -115 -133v-1165h-258v807h-147z" />
    <glyph glyph-name="uni018E" unicode="&#x18e;" horiz-adv-x="1259" 
d="M1110 1434v-1434h-989v242h719v329h-662v242h662v379h-725v242h995z" />
    <glyph glyph-name="uni018F" unicode="&#x18f;" horiz-adv-x="1177" 
d="M76 569h782q-12 117 -87 185.5t-191 68.5q-101 0 -168.5 -47.5t-112.5 -138.5l-193 111q72 150 189 223t289 73q141 0 260 -66.5t190.5 -190.5t71.5 -279q0 -156 -72 -279.5t-194 -190.5t-269 -67q-216 0 -355.5 143t-139.5 365v90zM580 168q101 0 174.5 59t103.5 154
h-545q19 -100 88.5 -156.5t178.5 -56.5z" />
    <glyph glyph-name="florin" unicode="&#x192;" horiz-adv-x="722" 
d="M61 807v209h148v143q0 183 98.5 280t261.5 97q67 0 129 -23l-45 -227q-37 12 -71 12q-115 0 -115 -133v-149h221v-209h-221v-877q0 -187 -90 -281.5t-258 -94.5q-70 0 -129 22l45 231q37 -16 71 -16q55 0 79 30t24 97v889h-148z" />
    <glyph glyph-name="uni01B5" unicode="&#x1b5;" horiz-adv-x="1257" 
d="M98 1184v250h1049v-250l-291 -363h260v-192h-416l-303 -379h785v-250h-1110v246l307 383h-250v192h406l290 363h-727z" />
    <glyph glyph-name="uni01B6" unicode="&#x1b6;" horiz-adv-x="1015" 
d="M131 430v197h315l162 180h-512v209h811v-209l-162 -180h140v-197h-316l-198 -221h571v-209h-868v209l196 221h-139z" />
    <glyph glyph-name="AEacute" unicode="&#x1fc;" horiz-adv-x="2017" 
d="M907 0v375h-448l-166 -375h-283l656 1434h1230v-242h-718v-330h661v-241h-661v-379h725v-242h-996zM821 1192l-256 -576h342v576h-86zM1069 1544l139 324h314l-254 -324h-199z" />
    <glyph glyph-name="aeacute" unicode="&#x1fd;" horiz-adv-x="1873" 
d="M803 1126l139 324h313l-254 -324h-198zM1798 446h-782q12 -117 87 -185t191 -68q101 0 168.5 47.5t112.5 138.5l192 -111q-73 -151 -189 -224t-288 -73q-135 0 -247.5 60.5t-184.5 171.5q-39 -78 -106 -132t-139 -77t-148 -23q-167 0 -272 87t-105 231q0 160 125.5 253
t345.5 93h199v27q0 105 -38.5 153.5t-148.5 48.5q-88 0 -135 -32t-47 -82q0 -16 4 -25l-231 -78q-19 43 -19 86q0 126 110.5 218.5t295.5 92.5q270 0 379 -145q151 145 375 145q217 0 356 -143t139 -364v-91zM489 180q113 0 191 71t78 185v10h-215q-96 0 -149.5 -41.5
t-53.5 -105.5q0 -55 40.5 -87t108.5 -32zM1294 848q-101 0 -174.5 -59t-103.5 -154h545q-19 100 -88.5 156.5t-178.5 56.5z" />
    <glyph glyph-name="Scommaaccent" unicode="&#x218;" horiz-adv-x="1335" 
d="M557 -373v250h258v-250l-184 -270l-60 22l76 248h-90zM412 1075q0 -83 81.5 -134.5t264.5 -88.5q239 -50 354 -155t115 -285q0 -184 -146.5 -312.5t-388.5 -128.5q-255 0 -406.5 125.5t-195.5 333.5l238 121q31 -167 117.5 -254.5t244.5 -87.5q122 0 194 52.5t72 139.5
q0 95 -85 148t-269 90q-205 39 -326.5 147.5t-121.5 282.5q0 178 139 285.5t364 107.5q411 0 545 -368l-213 -123q-85 254 -338 254q-102 0 -170.5 -38.5t-68.5 -111.5z" />
    <glyph glyph-name="scommaaccent" unicode="&#x219;" horiz-adv-x="1024" 
d="M420 -373v250h258v-250l-184 -270l-60 22l76 248h-90zM369 766q0 -94 239 -143q180 -37 260 -111t80 -203q0 -147 -108.5 -242.5t-292.5 -95.5q-92 0 -170 24.5t-134 68.5t-95.5 96.5t-65.5 115.5l207 132q34 -101 100.5 -160.5t161.5 -59.5q65 0 112.5 30t47.5 83
q0 49 -50 78t-167 53q-162 32 -258.5 110t-96.5 208q0 91 54.5 159.5t139 101.5t185.5 33q162 0 259.5 -61.5t160.5 -194.5l-186 -110q-32 85 -92 131.5t-138 46.5q-67 0 -110 -22.5t-43 -67.5z" />
    <glyph glyph-name="uni021A" unicode="&#x21a;" horiz-adv-x="1212" 
d="M473 -373v250h258v-250l-184 -270l-60 22l76 248h-90zM33 1184v250h1147v-250h-439v-1184h-270v1184h-438z" />
    <glyph glyph-name="uni021B" unicode="&#x21b;" horiz-adv-x="765" 
d="M338 -373v250h258v-250l-184 -270l-60 22l76 248h-90zM49 807v209h158v274h258v-274h221v-209h-221v-463q0 -143 129 -143q40 0 86 12l25 -213q-85 -29 -173 -29q-325 0 -325 324v512h-158z" />
    <glyph glyph-name="circumflex" unicode="&#x2c6;" horiz-adv-x="835" 
d="M94 1126l232 322h184l231 -322h-202l-121 123l-121 -123h-203z" />
    <glyph glyph-name="caron" unicode="&#x2c7;" horiz-adv-x="835" 
d="M326 1126l-232 322h203l121 -123l121 123h202l-231 -322h-184z" />
    <glyph glyph-name="breve" unicode="&#x2d8;" horiz-adv-x="602" 
d="M379 1386h156q0 -100 -65.5 -165.5t-168.5 -65.5t-168 65t-65 166h155q0 -38 21 -63t57 -25t57 25t21 63z" />
    <glyph glyph-name="dotaccent" unicode="&#x2d9;" horiz-adv-x="512" 
d="M115 1163v271h282v-271h-282z" />
    <glyph glyph-name="ring" unicode="&#x2da;" horiz-adv-x="561" 
d="M84 1300q0 82 57.5 138.5t139.5 56.5t139 -56.5t57 -138.5t-57 -138t-139 -56t-139.5 56.5t-57.5 137.5zM213 1300q0 -32 18.5 -50.5t49.5 -18.5t49 18.5t18 50.5t-18 51t-49 19t-49.5 -19t-18.5 -51z" />
    <glyph glyph-name="ogonek" unicode="&#x2db;" horiz-adv-x="458" 
d="M57 -213q0 139 158 238l195 -25q-148 -85 -148 -160q0 -37 23.5 -57.5t60.5 -20.5q22 0 45 5l23 -158q-58 -15 -123 -15q-92 0 -163 52t-71 141z" />
    <glyph glyph-name="tilde" unicode="&#x2dc;" horiz-adv-x="962" 
d="M332 1262q-20 0 -33.5 -12.5t-13.5 -32.5q0 -22 14 -54l-152 -30q-28 44 -28 108q0 87 61.5 136.5t138.5 49.5q64 0 115 -21t78 -46.5t58.5 -46.5t60.5 -21q20 0 33.5 12.5t13.5 32.5q0 22 -14 54l151 30q29 -45 29 -108q0 -89 -62 -138t-139 -49q-52 0 -95 14t-70.5 34
t-50.5 40t-47 34t-48 14z" />
    <glyph glyph-name="hungarumlaut" unicode="&#x2dd;" horiz-adv-x="1056" 
d="M109 1126l139 324h313l-254 -324h-198zM496 1126l139 324h313l-254 -324h-198z" />
    <glyph glyph-name="uni0374" unicode="&#x374;" horiz-adv-x="632" 
d="M102 860l129 590h299l-243 -590h-185z" />
    <glyph glyph-name="uni0375" unicode="&#x375;" horiz-adv-x="632" 
d="M530 266l-129 -590h-299l244 590h184z" />
    <glyph glyph-name="uni037A" unicode="&#x37a;" horiz-adv-x="481" 
d="M74 -150v109h217v-61q0 -55 24.5 -82t67.5 -27q34 0 55 6v-182q-51 -19 -119 -19q-109 0 -177 61t-68 195z" />
    <glyph glyph-name="uni037E" unicode="&#x37e;" horiz-adv-x="438" 
d="M82 717v274h274v-274h-274zM82 0v274h274v-274l-206 -332l-60 23l84 309h-92z" />
    <glyph glyph-name="tonos" unicode="&#x384;" horiz-adv-x="614" 
d="M113 1110l94 324h295l-209 -324h-180z" />
    <glyph glyph-name="dieresistonos" unicode="&#x385;" horiz-adv-x="1011" 
d="M735 1180v254h242v-254h-242zM35 1180v254h241v-254h-241zM309 1126l94 324h295l-209 -324h-180z" />
    <glyph glyph-name="Alphatonos" unicode="&#x386;" horiz-adv-x="1437" 
d="M10 0l580 1434h258l579 -1434h-288l-144 375h-553l-143 -375h-289zM666 961l-131 -345h368l-131 345l-16 45l-37 110l-37 -110zM76 1110l94 324h295l-209 -324h-180z" />
    <glyph glyph-name="anoteleia" unicode="&#x387;" horiz-adv-x="438" 
d="M82 614v275h274v-275h-274z" />
    <glyph glyph-name="Epsilontonos" unicode="&#x388;" horiz-adv-x="1581" 
d="M471 0v1434h989v-242h-719v-330h662v-241h-662v-379h725v-242h-995zM0 1110l94 324h295l-209 -324h-180z" />
    <glyph glyph-name="Etatonos" unicode="&#x389;" horiz-adv-x="1787" 
d="M471 0v1434h270v-578h627v578h270v-1434h-270v606h-627v-606h-270zM0 1110l94 324h295l-209 -324h-180z" />
    <glyph glyph-name="Iotatonos" unicode="&#x38a;" horiz-adv-x="890" 
d="M471 0v1434h270v-1434h-270zM0 1110l94 324h295l-209 -324h-180z" />
    <glyph glyph-name="Omicrontonos" unicode="&#x38c;" horiz-adv-x="1769" 
d="M1675 717q0 -158 -56.5 -296.5t-154 -237t-234.5 -155.5t-292 -57t-292 57t-234.5 155.5t-154 237t-56.5 296.5q0 211 96 381.5t265 267t376 96.5t376 -96.5t265 -267t96 -381.5zM938 221q198 0 330.5 137.5t132.5 358.5q0 226 -131.5 360.5t-331.5 134.5t-331.5 -134.5
t-131.5 -360.5t131.5 -361t331.5 -135zM0 1110l94 324h295l-209 -324h-180z" />
    <glyph glyph-name="Upsilontonos" unicode="&#x38e;" horiz-adv-x="1654" 
d="M1174 561v-561h-271v561l-473 873h297l266 -510q3 -6 9 -19t8 -16l28 -70q4 13 14.5 36.5t14.5 33.5q2 5 7.5 17t8.5 18l267 510h297zM0 1110l94 324h295l-209 -324h-180z" />
    <glyph glyph-name="Omegatonos" unicode="&#x38f;" horiz-adv-x="1740" 
d="M1622 197v-197h-590v225q145 83 244.5 232.5t99.5 328.5q0 187 -121.5 306.5t-316.5 119.5t-316.5 -119.5t-121.5 -306.5q0 -179 99.5 -328.5t244.5 -232.5v-225h-590v197h283q-60 47 -111 104t-97.5 132t-73 170t-26.5 198q0 142 54.5 265.5t149 210t225.5 136t280 49.5
t280 -49.5t225.5 -136t149 -210t54.5 -265.5q0 -103 -26.5 -198t-73 -170t-97.5 -132t-111 -104h283zM0 1110l94 324h295l-209 -324h-180z" />
    <glyph glyph-name="iotadieresistonos" unicode="&#x390;" horiz-adv-x="798" 
d="M168 295v721h258v-676q0 -73 30.5 -106t92.5 -33q32 0 78 12l24 -213q-92 -29 -164 -29q-319 0 -319 324zM629 1180v254h241v-254h-241zM-72 1180v254h242v-254h-242zM203 1126l94 324h295l-209 -324h-180z" />
    <glyph glyph-name="Alpha" unicode="&#x391;" horiz-adv-x="1437" 
d="M10 0l580 1434h258l579 -1434h-288l-144 375h-553l-143 -375h-289zM666 961l-131 -345h368l-131 345l-16 45l-37 110l-37 -110z" />
    <glyph glyph-name="Beta" unicode="&#x392;" horiz-adv-x="1351" 
d="M150 0v1434h589q221 0 340 -92t119 -259q0 -104 -57 -184.5t-142 -120.5q258 -104 258 -348q0 -132 -69.5 -231t-183.5 -149t-254 -50h-600zM420 639v-397h313q254 0 254 198q0 199 -254 199h-313zM420 1196v-319h299q115 0 166 38.5t51 120.5q0 83 -51.5 121.5
t-165.5 38.5h-299z" />
    <glyph glyph-name="Gamma" unicode="&#x393;" horiz-adv-x="1171" 
d="M150 0v1434h989v-242h-719v-1192h-270z" />
    <glyph glyph-name="uni0394" unicode="&#x394;" horiz-adv-x="1437" 
d="M10 0l580 1434h258l579 -1434h-1417zM666 961l-275 -719h656l-275 719l-16 45l-37 110l-37 -110z" />
    <glyph glyph-name="Epsilon" unicode="&#x395;" horiz-adv-x="1259" 
d="M150 0v1434h989v-242h-719v-330h661v-241h-661v-379h725v-242h-995z" />
    <glyph glyph-name="Zeta" unicode="&#x396;" horiz-adv-x="1257" 
d="M98 1184v250h1049v-250l-750 -934h785v-250h-1110v246l753 938h-727z" />
    <glyph glyph-name="Eta" unicode="&#x397;" horiz-adv-x="1466" 
d="M150 0v1434h270v-578h627v578h270v-1434h-270v606h-627v-606h-270z" />
    <glyph glyph-name="Theta" unicode="&#x398;" horiz-adv-x="1441" 
d="M1348 717q0 -211 -71.5 -378.5t-215.5 -267.5t-340 -100t-340 100t-215.5 267.5t-71.5 378.5t71.5 378t215.5 267t340 100t340 -100t215.5 -267t71.5 -378zM721 221q147 0 234.5 97.5t111.5 279.5h-692q24 -183 110 -280t236 -97zM721 1212q-297 0 -346 -376h692
q-24 182 -111 279t-235 97z" />
    <glyph glyph-name="Iota" unicode="&#x399;" horiz-adv-x="569" 
d="M150 0v1434h270v-1434h-270z" />
    <glyph glyph-name="Kappa" unicode="&#x39a;" horiz-adv-x="1347" 
d="M1276 1434l-508 -533l541 -901h-316l-420 700l-153 -161v-539h-270v1434h270v-564l74 82q8 8 22 25.5t16 19.5l414 437h330z" />
    <glyph glyph-name="Lambda" unicode="&#x39b;" horiz-adv-x="1361" 
d="M10 0l535 1434h274l533 -1434h-301l-316 918l-18 63q-5 19 -17.5 59.5t-17.5 59.5q-16 -44 -35 -119l-18 -63l-318 -918h-301z" />
    <glyph glyph-name="Mu" unicode="&#x39c;" horiz-adv-x="1781" 
d="M150 0v1434h284l457 -1139l457 1139h284v-1434h-262v877l-39 -123l-31 -97l-280 -657h-258l-281 657l-30 97l-39 123v-877h-262z" />
    <glyph glyph-name="Nu" unicode="&#x39d;" horiz-adv-x="1495" 
d="M150 0v1434h274l598 -912q6 -9 27 -45q23 -40 34 -67v1024h263v-1434h-275l-598 918q-6 9 -27 45q-27 48 -34 67v-1030h-262z" />
    <glyph glyph-name="Xi" unicode="&#x39e;" horiz-adv-x="1253" 
d="M1133 1192h-1012v242h1012v-242zM115 242h1024v-242h-1024v242zM1075 621h-897v241h897v-241z" />
    <glyph glyph-name="Omicron" unicode="&#x39f;" horiz-adv-x="1662" 
d="M1569 717q0 -211 -96.5 -382t-265.5 -267.5t-376 -96.5q-155 0 -292 57t-234.5 155.5t-154 237t-56.5 296.5q0 211 96 381.5t265 267t376 96.5t376 -96.5t265.5 -267t96.5 -381.5zM831 221q198 0 330.5 137.5t132.5 358.5q0 226 -131.5 360.5t-331.5 134.5t-331 -134.5
t-131 -360.5q0 -227 131 -361.5t331 -134.5z" />
    <glyph glyph-name="Pi" unicode="&#x3a0;" horiz-adv-x="1415" 
d="M150 0v1434h1116v-1434h-271v1184h-575v-1184h-270z" />
    <glyph glyph-name="Rho" unicode="&#x3a1;" horiz-adv-x="1429" 
d="M150 0v1434h651q247 0 391.5 -122.5t144.5 -344.5t-144.5 -344.5t-391.5 -122.5h-381v-500h-270zM420 1192v-451h373q137 0 205.5 60t68.5 166t-68.5 165.5t-205.5 59.5h-373z" />
    <glyph glyph-name="Sigma" unicode="&#x3a3;" horiz-adv-x="1220" 
d="M477 717l-379 467v250h1028v-250h-708l370 -467l-387 -467h748v-250h-1067v250z" />
    <glyph glyph-name="Tau" unicode="&#x3a4;" horiz-adv-x="1212" 
d="M33 1184v250h1147v-250h-439v-1184h-270v1184h-438z" />
    <glyph glyph-name="Upsilon" unicode="&#x3a5;" horiz-adv-x="1232" 
d="M752 561v-561h-271v561l-473 873h297l266 -510q3 -6 9 -19t8 -16l28 -70q4 13 14.5 36.5t14.5 33.5q2 3 8 16t9 19l266 510h297z" />
    <glyph glyph-name="Phi" unicode="&#x3a6;" horiz-adv-x="1667" 
d="M973 119v-119h-279v119h-8q-89 0 -175.5 24t-164 74t-136 120t-92.5 168t-34 212t34 212t92.5 168t136 120t164 74t175.5 24h8v119h279v-119h8q89 0 175.5 -24t164 -74t136 -120t92.5 -168t34 -212t-34 -212t-92.5 -168t-136 -120t-164 -74t-175.5 -24h-8zM973 1085v-737
h18q137 0 235.5 99.5t98.5 269.5t-98.5 269t-235.5 99h-18zM694 348v737h-18q-137 0 -235.5 -99t-98.5 -269t98.5 -269.5t235.5 -99.5h18z" />
    <glyph glyph-name="Chi" unicode="&#x3a7;" horiz-adv-x="1263" 
d="M362 1434l269 -447l282 447h275l-408 -654l475 -780h-288l-336 553l-334 -553h-291l479 770l-411 664h288z" />
    <glyph glyph-name="Psi" unicode="&#x3a8;" horiz-adv-x="1626" 
d="M678 0v328q-271 0 -412 147t-141 438v521h270v-512q0 -173 73.5 -265t209.5 -92v869h270v-869q136 0 209.5 92t73.5 265v512h270v-521q0 -291 -141 -438t-412 -147v-328h-270z" />
    <glyph glyph-name="uni03A9" unicode="&#x3a9;" horiz-adv-x="1605" 
d="M1487 197v-197h-590v225q145 83 244.5 232.5t99.5 328.5q0 187 -121.5 306.5t-316.5 119.5t-316.5 -119.5t-121.5 -306.5q0 -179 99.5 -328.5t244.5 -232.5v-225h-590v197h282q-60 47 -111 104t-97 132t-72.5 170t-26.5 198q0 142 54.5 265.5t149 210t225.5 136t280 49.5
t279.5 -49.5t225 -136t149 -210t54.5 -265.5q0 -103 -26.5 -198t-72.5 -170t-97 -132t-111 -104h283z" />
    <glyph glyph-name="Iotadieresis" unicode="&#x3aa;" horiz-adv-x="569" 
d="M150 0v1434h270v-1434h-270zM348 1597v254h242v-254h-242zM-20 1597v254h241v-254h-241z" />
    <glyph glyph-name="Upsilondieresis" unicode="&#x3ab;" horiz-adv-x="1232" 
d="M752 561v-561h-271v561l-473 873h297l266 -510q3 -6 9 -19t8 -16l28 -70q4 13 14.5 36.5t14.5 33.5q2 3 8 16t9 19l266 510h297zM680 1597v254h242v-254h-242zM311 1597v254h242v-254h-242z" />
    <glyph glyph-name="alphatonos" unicode="&#x3ac;" horiz-adv-x="1406" 
d="M1237 197q39 0 78 26l53 -223q-85 -29 -154 -29q-102 0 -166 43t-106 138q-124 -181 -344 -181q-147 0 -266 65.5t-189.5 189t-70.5 282.5q0 123 42 226t111.5 169.5t157 103.5t180.5 37q126 0 217.5 -40t161.5 -132l27 144h262l-113 -588q12 -115 37.5 -173t81.5 -58z
M612 803q-122 0 -200 -84.5t-78 -210.5t78 -210.5t200 -84.5t200.5 84.5t78.5 210.5t-78.5 210.5t-200.5 84.5zM510 1110l94 324h295l-209 -324h-180z" />
    <glyph glyph-name="epsilontonos" unicode="&#x3ad;" horiz-adv-x="997" 
d="M565 631v-178q-107 0 -169 -37t-62 -107q0 -64 49 -100.5t125 -36.5q75 0 119.5 33t44.5 92q0 28 -10 55l221 74q32 -55 32 -125q0 -164 -106.5 -247t-306.5 -83q-199 0 -308.5 92t-109.5 236q0 93 53 155t142 95q-66 32 -108 90t-42 139q0 117 105 191.5t282 74.5
q178 0 271.5 -77t93.5 -201q0 -59 -31 -119l-203 74q6 15 6 37q0 50 -42.5 76t-98.5 26q-68 0 -111 -28t-43 -78q0 -123 207 -123zM385 1110l94 324h295l-209 -324h-180z" />
    <glyph glyph-name="etatonos" unicode="&#x3ae;" 
d="M1087 692v-1110h-258v1004q0 217 -206 217q-104 0 -170 -79.5t-66 -207.5v-516h-258v1016h258v-164q58 90 147 141t197 51q164 0 260 -96t96 -256zM498 1110l94 324h295l-209 -324h-180z" />
    <glyph glyph-name="iotatonos" unicode="&#x3af;" horiz-adv-x="661" 
d="M127 295v721h258v-676q0 -73 30.5 -106t92.5 -33q32 0 78 12l24 -213q-92 -29 -164 -29q-319 0 -319 324zM164 1110l94 324h295l-209 -324h-180z" />
    <glyph glyph-name="upsilondieresistonos" unicode="&#x3b0;" horiz-adv-x="1191" 
d="M129 440v576h258v-572q0 -110 54.5 -170.5t154.5 -60.5t154.5 60.5t54.5 170.5v572h258v-576q0 -230 -127.5 -349.5t-339.5 -119.5t-339.5 119.5t-127.5 349.5zM825 1180v254h242v-254h-242zM125 1180v254h242v-254h-242zM399 1126l95 324h294l-208 -324h-181z" />
    <glyph glyph-name="alpha" unicode="&#x3b1;" horiz-adv-x="1406" 
d="M1237 197q39 0 78 26l53 -223q-85 -29 -154 -29q-102 0 -166 43t-106 138q-124 -181 -344 -181q-147 0 -266 65.5t-189.5 189t-70.5 282.5q0 123 42 226t111.5 169.5t157 103.5t180.5 37q126 0 217.5 -40t161.5 -132l27 144h262l-113 -588q12 -115 37.5 -173t81.5 -58z
M612 803q-122 0 -200 -84.5t-78 -210.5t78 -210.5t200 -84.5t200.5 84.5t78.5 210.5t-78.5 210.5t-200.5 84.5z" />
    <glyph glyph-name="beta" unicode="&#x3b2;" horiz-adv-x="1204" 
d="M690 -29q-201 0 -303 138v-527h-258v1434q0 111 37 198t100 140t141.5 80.5t167.5 27.5q201 0 318 -96.5t117 -257.5q0 -208 -203 -305q65 -24 118 -57t98.5 -80.5t71 -114t25.5 -145.5q0 -188 -122.5 -311.5t-307.5 -123.5zM475 668v225h62q106 0 163.5 46.5t57.5 137.5
q0 69 -47.5 114.5t-130.5 45.5q-84 0 -138.5 -56t-54.5 -163v-545q0 -132 72.5 -204t179.5 -72q100 0 161.5 57t61.5 164q0 65 -26 114.5t-72 78.5t-102.5 43t-122.5 14h-64z" />
    <glyph glyph-name="gamma" unicode="&#x3b3;" horiz-adv-x="1122" 
d="M432 -418v438l-403 996h280l252 -688l252 688h281l-404 -996v-438h-258z" />
    <glyph glyph-name="delta" unicode="&#x3b4;" horiz-adv-x="1183" 
d="M522 1233l338 -299q121 -103 180.5 -210.5t59.5 -264.5q0 -143 -72 -256t-187.5 -172.5t-250.5 -59.5q-103 0 -193.5 31.5t-160.5 91t-111 154t-41 211.5q0 131 63 237.5t167.5 168t230.5 69.5l-391 344v156h757v-201h-389zM590 193q115 0 189.5 72.5t74.5 193.5
q0 119 -77 192.5t-187 73.5t-187 -73.5t-77 -192.5q0 -121 74.5 -193.5t189.5 -72.5z" />
    <glyph glyph-name="epsilon" unicode="&#x3b5;" horiz-adv-x="997" 
d="M565 631v-178q-107 0 -169 -37t-62 -107q0 -64 49 -100.5t125 -36.5q75 0 119.5 33t44.5 92q0 28 -10 55l221 74q32 -55 32 -125q0 -164 -106.5 -247t-306.5 -83q-199 0 -308.5 92t-109.5 236q0 93 53 155t142 95q-66 32 -108 90t-42 139q0 117 105 191.5t282 74.5
q178 0 271.5 -77t93.5 -201q0 -59 -31 -119l-203 74q6 15 6 37q0 50 -42.5 76t-98.5 26q-68 0 -111 -28t-43 -78q0 -123 207 -123z" />
    <glyph glyph-name="zeta" unicode="&#x3b6;" horiz-adv-x="1046" 
d="M895 -295l-182 145q32 41 32 74q0 76 -108 76q-128 0 -227.5 27.5t-173.5 85t-113 152.5t-39 224q0 119 44 234.5t118 208t161.5 166t184.5 127.5h-483v209h753v-209q-226 -118 -373 -304t-147 -370q0 -85 26 -147t74 -97.5t109 -52t137 -16.5q157 -1 238.5 -76
t81.5 -211q0 -68 -28.5 -126t-84.5 -120z" />
    <glyph glyph-name="eta" unicode="&#x3b7;" 
d="M1087 692v-1110h-258v1004q0 217 -206 217q-104 0 -170 -79.5t-66 -207.5v-516h-258v1016h258v-164q58 90 147 141t197 51q164 0 260 -96t96 -256z" />
    <glyph glyph-name="theta" unicode="&#x3b8;" horiz-adv-x="1310" 
d="M1227 717q0 -354 -155 -550t-417 -196t-416.5 196t-154.5 550q0 350 159 547.5t412 197.5t412.5 -197.5t159.5 -547.5zM655 1221q-125 0 -204 -93t-97 -292h602q-18 199 -97 292t-204 93zM655 213q125 0 204 93t97 292h-602q18 -199 97 -292t204 -93z" />
    <glyph glyph-name="iota" unicode="&#x3b9;" horiz-adv-x="661" 
d="M129 295v721h258v-676q0 -73 30.5 -106t92.5 -33q32 0 78 12l24 -213q-92 -29 -163 -29q-320 0 -320 324z" />
    <glyph glyph-name="kappa" unicode="&#x3ba;" horiz-adv-x="1107" 
d="M387 1016v-324l309 324h320l-381 -389l430 -627h-297l-311 444l-70 -71v-373h-258v1016h258z" />
    <glyph glyph-name="lambda" unicode="&#x3bb;" horiz-adv-x="1118" 
d="M188 1188l-41 235q70 25 142 25q121 0 202 -58t134 -190l483 -1200h-293l-250 659l-262 -659h-293l418 1024l-33 90q-34 98 -114 98q-47 0 -93 -24z" />
    <glyph glyph-name="uni03BC" unicode="&#x3bc;" 
d="M129 -418v1434h258v-572q0 -231 207 -231q108 0 171.5 77.5t63.5 201.5v524h258v-1016h-258v160q-50 -92 -132 -140.5t-191 -48.5q-63 0 -125 19q6 -117 6 -140v-268h-258z" />
    <glyph glyph-name="nu" unicode="&#x3bd;" horiz-adv-x="1093" 
d="M1079 1016l-411 -1016h-242l-412 1016h275l258 -688l258 688h274z" />
    <glyph glyph-name="xi" unicode="&#x3be;" horiz-adv-x="1122" 
d="M1018 -41q0 -92 -37.5 -153.5t-114.5 -127.5l-155 142q37 40 37 76q0 41 -28.5 58t-94.5 17q-241 0 -390 119t-149 309q0 80 25 147t67.5 113t88.5 76.5t98 50.5q-90 47 -150.5 128t-60.5 190q0 158 124 258t334 100q226 0 336.5 -95t110.5 -255q0 -71 -27 -131l-244 53
q13 35 13 70q0 66 -49 101.5t-142 35.5q-89 0 -141.5 -45.5t-52.5 -126.5q0 -95 80 -149t227 -54v-200q-161 0 -264 -61t-103 -175q0 -108 90 -168.5t261 -60.5q145 0 228 -65.5t83 -176.5z" />
    <glyph glyph-name="omicron" unicode="&#x3bf;" horiz-adv-x="1253" 
d="M1182 508q0 -103 -31 -191.5t-84 -151t-124 -107t-151 -66t-165 -21.5t-165 21.5t-151 66t-124 107t-84 151t-31 191.5t31 191t84 151t124 107t151 65.5t165 21.5t165 -21.5t151 -65.5t124 -107t84 -151t31 -191zM627 213q120 0 206.5 81t86.5 214t-86.5 214t-206.5 81
t-206.5 -80t-86.5 -215t86.5 -215t206.5 -80z" />
    <glyph glyph-name="pi" unicode="&#x3c0;" horiz-adv-x="1396" 
d="M522 0h-258v807h-213v209h1284v-209h-213v-471q0 -135 111 -135q39 0 76 12l24 -213q-85 -29 -174 -29q-135 0 -215 82.5t-80 241.5v512h-342v-807z" />
    <glyph glyph-name="rho" unicode="&#x3c1;" horiz-adv-x="1277" 
d="M129 -418v926q0 249 149 392.5t388 143.5q242 0 391 -143.5t149 -392.5q0 -241 -140 -389t-357 -148q-97 0 -183.5 40.5t-138.5 107.5v-537h-258zM666 803q-122 0 -200.5 -84.5t-78.5 -210.5t78.5 -210.5t200.5 -84.5t200 84.5t78 210.5t-78 210.5t-200 84.5z" />
    <glyph glyph-name="sigma1" unicode="&#x3c2;" horiz-adv-x="1136" 
d="M666 197q154 -31 226.5 -91.5t72.5 -179.5q0 -145 -181 -278l-161 162q49 43 49 90q0 28 -20 47.5t-60 25.5q-82 12 -156.5 39.5t-141.5 74t-116 107.5t-77.5 145.5t-28.5 182.5q0 113 43 211.5t115.5 166t170 106t205.5 38.5q180 0 295.5 -77.5t169.5 -204.5l-211 -139
q-81 180 -264 180q-113 0 -187.5 -78t-74.5 -199q0 -133 89.5 -216.5t242.5 -112.5z" />
    <glyph glyph-name="sigma" unicode="&#x3c3;" horiz-adv-x="1308" 
d="M1182 508q0 -103 -31 -191.5t-84 -151t-124 -107t-151 -66t-165 -21.5t-165 21.5t-151 66t-124 107t-84 151t-31 191.5q0 129 47.5 232.5t128 169t183 100t216.5 34.5h610v-192h-225q65 -61 107.5 -149t42.5 -195zM627 213q120 0 206.5 81t86.5 214t-86.5 214t-206.5 81
t-206.5 -80t-86.5 -215t86.5 -215t206.5 -80z" />
    <glyph glyph-name="tau" unicode="&#x3c4;" horiz-adv-x="940" 
d="M37 807v209h844v-209h-293v-463q0 -74 37.5 -108.5t99.5 -34.5q42 0 96 14l27 -215q-82 -29 -174 -29q-70 0 -128.5 16t-108.5 51t-78.5 100.5t-28.5 156.5v512h-293z" />
    <glyph glyph-name="upsilon" unicode="&#x3c5;" horiz-adv-x="1191" 
d="M129 440v576h258v-572q0 -110 54.5 -170.5t154.5 -60.5t154.5 60.5t54.5 170.5v572h258v-576q0 -230 -127.5 -349.5t-339.5 -119.5t-339.5 119.5t-127.5 349.5z" />
    <glyph glyph-name="phi" unicode="&#x3c6;" horiz-adv-x="1507" 
d="M883 0v-418h-258v418h-23q-81 0 -158.5 22t-144.5 65.5t-118 103.5t-80 142t-29 175q0 237 150.5 372.5t402.5 135.5h258q252 0 402.5 -135.5t150.5 -372.5q0 -116 -45 -213.5t-119.5 -161t-169.5 -98.5t-197 -35h-22zM330 508q0 -143 84.5 -217t210.5 -74v582
q-126 0 -210.5 -74t-84.5 -217zM1178 508q0 143 -84.5 217t-210.5 74v-582q126 0 210.5 74t84.5 217z" />
    <glyph glyph-name="chi" unicode="&#x3c7;" horiz-adv-x="1161" 
d="M84 -418l391 758l-186 399q-17 36 -35 51t-43 15q-42 0 -84 -31l-82 176q38 36 93.5 58t115.5 22q178 0 248 -158l110 -247l185 391h270l-330 -672l211 -453q25 -52 46.5 -72t60.5 -20q31 0 78 27l57 -211q-73 -47 -176 -47q-110 0 -177 47t-116 162l-123 284l-233 -479
h-281z" />
    <glyph glyph-name="psi" unicode="&#x3c8;" horiz-adv-x="1437" 
d="M848 -29v-389h-258v389q-217 0 -339 116.5t-122 338.5v590h258v-590q0 -223 203 -223v813h258v-813q203 0 203 223v590h258v-590q0 -222 -122 -338.5t-339 -116.5z" />
    <glyph glyph-name="omega" unicode="&#x3c9;" horiz-adv-x="1675" 
d="M1169 936l230 108q162 -241 162 -577q0 -225 -107 -360.5t-297 -135.5q-126 0 -202.5 54.5t-116.5 158.5q-40 -104 -117 -158.5t-203 -54.5q-190 0 -296.5 135.5t-106.5 360.5q0 338 161 577l230 -108q-69 -134 -101 -239.5t-32 -237.5q0 -135 44.5 -198.5t121.5 -63.5
q78 0 124 57.5t46 169.5v313h258v-313q0 -112 46 -169.5t124 -57.5q77 0 121.5 63.5t44.5 198.5q0 132 -32 237t-102 240z" />
    <glyph glyph-name="iotadieresis" unicode="&#x3ca;" horiz-adv-x="661" 
d="M129 295v721h258v-676q0 -73 30.5 -106t92.5 -33q32 0 78 12l24 -213q-92 -29 -163 -29q-320 0 -320 324zM324 1180v254h241v-254h-241zM-45 1180v254h242v-254h-242z" />
    <glyph glyph-name="upsilondieresis" unicode="&#x3cb;" horiz-adv-x="1191" 
d="M129 440v576h258v-572q0 -110 54.5 -170.5t154.5 -60.5t154.5 60.5t54.5 170.5v572h258v-576q0 -230 -127.5 -349.5t-339.5 -119.5t-339.5 119.5t-127.5 349.5zM659 1180v254h242v-254h-242zM291 1180v254h241v-254h-241z" />
    <glyph glyph-name="omicrontonos" unicode="&#x3cc;" horiz-adv-x="1253" 
d="M1182 508q0 -103 -31 -191.5t-84 -151t-124 -107t-151 -66t-165 -21.5t-165 21.5t-151 66t-124 107t-84 151t-31 191.5t31 191t84 151t124 107t151 65.5t165 21.5t165 -21.5t151 -65.5t124 -107t84 -151t31 -191zM627 213q120 0 206.5 81t86.5 214t-86.5 214t-206.5 81
t-206.5 -80t-86.5 -215t86.5 -215t206.5 -80zM514 1110l94 324h295l-209 -324h-180z" />
    <glyph glyph-name="upsilontonos" unicode="&#x3cd;" horiz-adv-x="1191" 
d="M129 440v576h258v-572q0 -110 54.5 -170.5t154.5 -60.5t154.5 60.5t54.5 170.5v572h258v-576q0 -230 -127.5 -349.5t-339.5 -119.5t-339.5 119.5t-127.5 349.5zM483 1110l95 324h294l-208 -324h-181z" />
    <glyph glyph-name="omegatonos" unicode="&#x3ce;" horiz-adv-x="1675" 
d="M1169 936l230 108q162 -241 162 -577q0 -225 -107 -360.5t-297 -135.5q-126 0 -202.5 54.5t-116.5 158.5q-40 -104 -117 -158.5t-203 -54.5q-190 0 -296.5 135.5t-106.5 360.5q0 338 161 577l230 -108q-69 -134 -101 -239.5t-32 -237.5q0 -135 44.5 -198.5t121.5 -63.5
q78 0 124 57.5t46 169.5v313h258v-313q0 -112 46 -169.5t124 -57.5q77 0 121.5 63.5t44.5 198.5q0 132 -32 237t-102 240zM725 1110l94 324h295l-209 -324h-180z" />
    <glyph glyph-name="uni0400" unicode="&#x400;" horiz-adv-x="1259" 
d="M150 0v1434h989v-242h-719v-330h661v-241h-661v-379h725v-242h-995zM676 1868l139 -324h-199l-254 324h314z" />
    <glyph glyph-name="uni0401" unicode="&#x401;" horiz-adv-x="1259" 
d="M150 0v1434h989v-242h-719v-330h661v-241h-661v-379h725v-242h-995zM713 1597v254h241v-254h-241zM344 1597v254h242v-254h-242z" />
    <glyph glyph-name="uni0402" unicode="&#x402;" horiz-adv-x="1560" 
d="M33 1184v250h1114v-250h-438v-340h258q241 0 375.5 -110t134.5 -322q0 -199 -129.5 -312.5t-337.5 -113.5q-95 0 -189 24l37 219q62 -26 143 -26q104 0 165 50.5t61 160.5q0 100 -78.5 152t-226.5 52h-213v-618h-271v1184h-405z" />
    <glyph glyph-name="uni0403" unicode="&#x403;" horiz-adv-x="1171" 
d="M150 0v1434h989v-242h-719v-1192h-270zM500 1544l139 324h313l-254 -324h-198z" />
    <glyph glyph-name="uni0404" unicode="&#x404;" horiz-adv-x="1542" 
d="M1139 844v-226h-764q26 -189 143.5 -293t292.5 -104q148 0 247.5 76.5t170.5 224.5l215 -139q-203 -412 -641 -412q-316 0 -512.5 205.5t-196.5 540.5q0 221 91.5 391t253 262t366.5 92q164 0 288.5 -47.5t207.5 -134t141 -217.5l-234 -137q-126 286 -399 286
q-162 0 -277 -96t-151 -272h758z" />
    <glyph glyph-name="uni0405" unicode="&#x405;" horiz-adv-x="1335" 
d="M412 1075q0 -83 81.5 -134.5t264.5 -88.5q239 -50 354 -155t115 -285q0 -184 -146.5 -312.5t-388.5 -128.5q-255 0 -406.5 125.5t-195.5 333.5l238 121q31 -167 117.5 -254.5t244.5 -87.5q122 0 194 52.5t72 139.5q0 95 -85 148t-269 90q-205 39 -326.5 147.5
t-121.5 282.5q0 178 139 285.5t364 107.5q411 0 545 -368l-213 -123q-85 254 -338 254q-102 0 -170.5 -38.5t-68.5 -111.5z" />
    <glyph glyph-name="uni0406" unicode="&#x406;" horiz-adv-x="569" 
d="M150 0v1434h270v-1434h-270z" />
    <glyph glyph-name="uni0407" unicode="&#x407;" horiz-adv-x="569" 
d="M150 0v1434h270v-1434h-270zM348 1597v254h242v-254h-242zM-20 1597v254h241v-254h-241z" />
    <glyph glyph-name="uni0408" unicode="&#x408;" horiz-adv-x="1136" 
d="M1024 1434v-996q0 -208 -124 -337.5t-345 -129.5q-222 0 -345.5 127.5t-123.5 360.5l270 -29q2 -106 49.5 -157.5t149.5 -51.5q96 0 147.5 60t51.5 161v992h270z" />
    <glyph glyph-name="uni0409" unicode="&#x409;" horiz-adv-x="2174" 
d="M973 0v1192h-314l-104 -936q-13 -127 -93 -198.5t-198 -71.5q-131 0 -198 28l49 248q36 -22 88 -22q83 0 92 86l125 1108h823v-557h334q225 0 364.5 -115.5t139.5 -321.5q0 -205 -139.5 -322.5t-364.5 -117.5h-604zM1243 639v-397h313q254 0 254 198q0 199 -254 199h-313
z" />
    <glyph glyph-name="uni040A" unicode="&#x40a;" horiz-adv-x="2166" 
d="M150 0v1434h270v-578h545v578h270v-578h334q226 0 365 -114t139 -318q0 -136 -65.5 -233t-178 -144t-260.5 -47h-604v606h-545v-606h-270zM1235 606v-364h313q254 0 254 182t-254 182h-313z" />
    <glyph glyph-name="uni040B" unicode="&#x40b;" horiz-adv-x="1544" 
d="M1415 600v-600h-258v500q0 102 -52 159.5t-153 57.5q-110 0 -180 -79.5t-70 -207.5v-430h-270v1184h-399v250h1147v-250h-478v-414q57 91 148.5 139.5t204.5 48.5q165 0 262.5 -97.5t97.5 -260.5z" />
    <glyph glyph-name="uni040C" unicode="&#x40c;" horiz-adv-x="1347" 
d="M1276 1434l-508 -533l541 -901h-316l-420 700l-153 -161v-539h-270v1434h270v-553l74 82q8 8 22 25.5t16 19.5l402 426h342zM510 1544l139 324h314l-254 -324h-199z" />
    <glyph glyph-name="uni040D" unicode="&#x40d;" horiz-adv-x="1495" 
d="M1346 1434v-1434h-263v1030q-7 -19 -34 -67q-21 -36 -27 -45l-598 -918h-274v1434h262v-1024q11 27 34 67q21 36 27 45l598 912h275zM758 1868l139 -324h-199l-254 324h314z" />
    <glyph glyph-name="uni040E" unicode="&#x40e;" horiz-adv-x="1167" 
d="M176 0l53 274q37 -24 80 -24q67 0 101 72l67 170l-459 942h310l282 -611l244 611h283l-506 -1248q-86 -215 -293 -215q-73 0 -162 29zM680 1804h156q0 -100 -65 -165.5t-169 -65.5q-103 0 -168 65t-65 166h155q0 -38 21 -63t57 -25t57 25t21 63z" />
    <glyph glyph-name="uni040F" unicode="&#x40f;" horiz-adv-x="1415" 
d="M150 0v1434h270v-1184h575v1184h271v-1434h-432v-238h-252v238h-432z" />
    <glyph glyph-name="uni0410" unicode="&#x410;" horiz-adv-x="1437" 
d="M10 0l580 1434h258l579 -1434h-288l-144 375h-553l-143 -375h-289zM666 961l-131 -345h368l-131 345l-16 45l-37 110l-37 -110z" />
    <glyph glyph-name="uni0411" unicode="&#x411;" horiz-adv-x="1351" 
d="M420 639v-397h313q254 0 254 198q0 199 -254 199h-313zM420 877h334q225 0 364 -115.5t139 -321.5q0 -205 -139.5 -322.5t-363.5 -117.5h-604v1434h937v-238h-667v-319z" />
    <glyph glyph-name="uni0412" unicode="&#x412;" horiz-adv-x="1351" 
d="M150 0v1434h589q221 0 340 -92t119 -259q0 -104 -57 -184.5t-142 -120.5q258 -104 258 -348q0 -132 -69.5 -231t-183.5 -149t-254 -50h-600zM420 639v-397h313q254 0 254 198q0 199 -254 199h-313zM420 1196v-319h299q115 0 166 38.5t51 120.5q0 83 -51.5 121.5
t-165.5 38.5h-299z" />
    <glyph glyph-name="uni0413" unicode="&#x413;" horiz-adv-x="1171" 
d="M150 0v1434h989v-242h-719v-1192h-270z" />
    <glyph glyph-name="uni0414" unicode="&#x414;" horiz-adv-x="1456" 
d="M283 0v-238h-252v480h121q64 135 98.5 268.5t58.5 347.5l68 576h901v-1192h102v-480h-252v238h-845zM1008 242v950h-385l-39 -328q-28 -230 -57 -351.5t-87 -270.5h568z" />
    <glyph glyph-name="uni0415" unicode="&#x415;" horiz-adv-x="1259" 
d="M150 0v1434h989v-242h-719v-330h661v-241h-661v-379h725v-242h-995z" />
    <glyph glyph-name="uni0416" unicode="&#x416;" horiz-adv-x="2088" 
d="M2011 1434l-500 -535l539 -899h-315l-412 698l-143 -153v-545h-271v545l-143 153l-412 -698h-315l539 899l-500 535h334l385 -422q36 -42 39 -45l73 -82v549h271v-549l73 82q3 3 39 45l385 422h334z" />
    <glyph glyph-name="uni0417" unicode="&#x417;" horiz-adv-x="1210" 
d="M125 537l256 -62q-8 -19 -8 -59q0 -97 65 -152t176 -55q104 0 168 57t64 166q0 118 -96 176t-258 58v200q147 0 220.5 53.5t73.5 153.5q0 76 -49.5 120t-140.5 44q-90 0 -143.5 -44t-53.5 -118q0 -39 13 -69l-250 -56q-21 49 -21 113q0 79 30 150.5t86 127t144 88.5
t195 33q215 0 334 -97.5t119 -254.5q0 -113 -58 -197.5t-153 -124.5q123 -40 200.5 -131t77.5 -229q0 -209 -138.5 -333t-363.5 -124q-123 0 -222.5 35.5t-161.5 96t-95 137.5t-33 163q0 77 23 134z" />
    <glyph glyph-name="uni0418" unicode="&#x418;" horiz-adv-x="1495" 
d="M1346 1434v-1434h-263v1030q-7 -19 -34 -67q-21 -36 -27 -45l-598 -918h-274v1434h262v-1024q11 27 34 67q21 36 27 45l598 912h275z" />
    <glyph glyph-name="uni0419" unicode="&#x419;" horiz-adv-x="1495" 
d="M1346 1434v-1434h-263v1030q-7 -19 -34 -67q-21 -36 -27 -45l-598 -918h-274v1434h262v-1024q11 27 34 67q21 36 27 45l598 912h275zM825 1804h156q0 -101 -65 -166t-168 -65q-104 0 -169 65.5t-65 165.5h156q0 -38 21 -63t57 -25t56.5 25t20.5 63z" />
    <glyph glyph-name="uni041A" unicode="&#x41a;" horiz-adv-x="1347" 
d="M1276 1434l-508 -533l541 -901h-316l-420 700l-153 -161v-539h-270v1434h270v-553l74 82q8 8 22 25.5t16 19.5l402 426h342z" />
    <glyph glyph-name="uni041B" unicode="&#x41b;" horiz-adv-x="1478" 
d="M66 14l49 248q36 -22 88 -22q83 0 92 86l125 1108h909v-1434h-270v1192h-400l-104 -936q-13 -127 -93 -198.5t-198 -71.5q-131 0 -198 28z" />
    <glyph glyph-name="uni041C" unicode="&#x41c;" horiz-adv-x="1781" 
d="M150 0v1434h284l457 -1139l457 1139h284v-1434h-262v877l-39 -123l-31 -97l-280 -657h-258l-281 657l-30 97l-39 123v-877h-262z" />
    <glyph glyph-name="uni041D" unicode="&#x41d;" horiz-adv-x="1466" 
d="M150 0v1434h270v-578h627v578h270v-1434h-270v606h-627v-606h-270z" />
    <glyph glyph-name="uni041E" unicode="&#x41e;" horiz-adv-x="1662" 
d="M1569 717q0 -211 -96.5 -382t-265.5 -267.5t-376 -96.5q-155 0 -292 57t-234.5 155.5t-154 237t-56.5 296.5q0 211 96 381.5t265 267t376 96.5t376 -96.5t265.5 -267t96.5 -381.5zM831 221q200 0 331.5 135t131.5 361t-131.5 360.5t-331.5 134.5t-331 -134.5t-131 -360.5
q0 -227 131 -361.5t331 -134.5z" />
    <glyph glyph-name="uni041F" unicode="&#x41f;" horiz-adv-x="1415" 
d="M150 0v1434h1116v-1434h-271v1184h-575v-1184h-270z" />
    <glyph glyph-name="uni0420" unicode="&#x420;" horiz-adv-x="1429" 
d="M150 0v1434h651q247 0 391.5 -122.5t144.5 -344.5t-144.5 -344.5t-391.5 -122.5h-381v-500h-270zM420 1192v-451h373q137 0 205.5 60t68.5 166t-68.5 165.5t-205.5 59.5h-373z" />
    <glyph glyph-name="uni0421" unicode="&#x421;" horiz-adv-x="1572" 
d="M1264 508l211 -152q-69 -103 -132.5 -172t-140.5 -118.5t-168 -72t-207 -22.5q-209 0 -375.5 92t-262 263t-95.5 391t98.5 391t267.5 262.5t378 91.5q221 0 386.5 -103t241.5 -272l-219 -157q-68 141 -169 211.5t-249 70.5q-94 0 -178 -35t-146.5 -98t-99 -157
t-36.5 -205q0 -218 132.5 -357t327.5 -139q281 0 435 287z" />
    <glyph glyph-name="uni0422" unicode="&#x422;" horiz-adv-x="1212" 
d="M33 1184v250h1147v-250h-439v-1184h-270v1184h-438z" />
    <glyph glyph-name="uni0423" unicode="&#x423;" horiz-adv-x="1167" 
d="M176 0l53 274q37 -24 80 -24q67 0 101 72l67 170l-459 942h310l282 -611l244 611h283l-506 -1248q-86 -215 -293 -215q-73 0 -162 29z" />
    <glyph glyph-name="uni0424" unicode="&#x424;" horiz-adv-x="1667" 
d="M973 119v-119h-279v119h-8q-89 0 -175.5 24t-164 74t-136 120t-92.5 168t-34 212t34 212t92.5 168t136 120t164 74t175.5 24h8v119h279v-119h8q89 0 175.5 -24t164 -74t136 -120t92.5 -168t34 -212t-34 -212t-92.5 -168t-136 -120t-164 -74t-175.5 -24h-8zM973 1085v-737
h18q137 0 235.5 99.5t98.5 269.5t-98.5 269t-235.5 99h-18zM694 348v737h-18q-137 0 -235.5 -99t-98.5 -269t98.5 -269.5t235.5 -99.5h18z" />
    <glyph glyph-name="uni0425" unicode="&#x425;" horiz-adv-x="1263" 
d="M358 1434l273 -455l287 455h274l-410 -654l473 -780h-288l-336 553l-334 -553h-291l479 770l-415 664h288z" />
    <glyph glyph-name="uni0426" unicode="&#x426;" horiz-adv-x="1443" 
d="M150 0v1434h270v-1184h575v1184h271v-1184h102v-488h-252v238h-966z" />
    <glyph glyph-name="uni0427" unicode="&#x427;" horiz-adv-x="1320" 
d="M901 1026v408h270v-1434h-270v618q-97 -135 -309 -135q-94 0 -176 31.5t-146.5 92t-101.5 159.5t-37 225v443h270v-418q0 -144 67.5 -217.5t178.5 -73.5q118 0 186 74t68 227z" />
    <glyph glyph-name="uni0428" unicode="&#x428;" horiz-adv-x="1794" 
d="M150 0v1434h270v-1184h342v1184h270v-1184h342v1184h271v-1434h-1495z" />
    <glyph glyph-name="uni0429" unicode="&#x429;" horiz-adv-x="1822" 
d="M150 0v1434h270v-1184h342v1184h270v-1184h342v1184h271v-1184h102v-488h-252v238h-1345z" />
    <glyph glyph-name="uni042A" unicode="&#x42a;" horiz-adv-x="1497" 
d="M295 0v1196h-246v238h516v-557h334q225 0 364.5 -115.5t139.5 -321.5q0 -205 -139.5 -322.5t-364.5 -117.5h-604zM565 639v-397h314q254 0 254 198q0 199 -254 199h-314z" />
    <glyph glyph-name="uni042B" unicode="&#x42b;" horiz-adv-x="1859" 
d="M150 0v1434h270v-557h334q225 0 364 -115.5t139 -321.5q0 -205 -139.5 -322.5t-363.5 -117.5h-604zM420 639v-397h313q254 0 254 198q0 199 -254 199h-313zM1440 0v1434h270v-1434h-270z" />
    <glyph glyph-name="uni042C" unicode="&#x42c;" horiz-adv-x="1351" 
d="M150 0v1434h270v-557h334q225 0 364 -115.5t139 -321.5q0 -205 -139.5 -322.5t-363.5 -117.5h-604zM420 639v-397h313q254 0 254 198q0 199 -254 199h-313z" />
    <glyph glyph-name="uni042D" unicode="&#x42d;" horiz-adv-x="1554" 
d="M416 618v226h758q-36 175 -153 271.5t-276 96.5q-132 0 -240 -70.5t-173 -203.5l-219 125q84 176 248.5 287.5t390.5 111.5q316 0 512 -205t196 -540q0 -221 -90 -391.5t-251 -262.5t-367 -92q-157 0 -286.5 53.5t-217.5 142t-150 212.5l226 145q71 -150 173 -226.5
t246 -76.5q175 0 293 104t144 293h-764z" />
    <glyph glyph-name="uni042E" unicode="&#x42e;" horiz-adv-x="2088" 
d="M1995 717q0 -211 -96.5 -382t-265.5 -267.5t-376 -96.5q-284 0 -486 173t-243 448h-108v-592h-270v1434h270v-592h108q27 181 127.5 322t257 219.5t344.5 78.5q207 0 376 -96.5t265.5 -267t96.5 -381.5zM1257 221q200 0 331.5 135t131.5 361t-131.5 360.5t-331.5 134.5
t-331 -134.5t-131 -360.5q0 -227 131 -361.5t331 -134.5z" />
    <glyph glyph-name="uni042F" unicode="&#x42f;" horiz-adv-x="1366" 
d="M717 582l-332 -582h-309l346 606q-328 120 -328 422q0 187 136.5 296.5t373.5 109.5h613v-1434h-271v582h-229zM946 819v377h-342q-121 0 -180 -49.5t-59 -138.5t59 -139t180 -50h342z" />
    <glyph glyph-name="uni0430" unicode="&#x430;" horiz-adv-x="1161" 
d="M1081 0h-262q-49 70 -49 162q-107 -191 -340 -191q-152 0 -247 87t-95 231q0 75 29.5 135.5t81 100.5t115 64.5t137.5 35.5l305 47v39q0 74 -47 113.5t-140 39.5q-87 0 -134.5 -32t-47.5 -82q0 -16 4 -25l-231 -78q-19 43 -19 86q0 126 116.5 218.5t311.5 92.5
q218 0 331.5 -92t113.5 -276v-424q0 -87 15 -142t52 -110zM492 180q117 0 190.5 76t73.5 219v19l-246 -41q-170 -27 -170 -150q0 -60 41 -91.5t111 -31.5z" />
    <glyph glyph-name="uni0431" unicode="&#x431;" horiz-adv-x="1226" 
d="M934 1479l74 -197q-91 -62 -240 -65q-182 -5 -287.5 -90t-144.5 -291q50 73 140.5 116t199.5 43q95 0 180 -35.5t148.5 -99.5t101 -160.5t37.5 -210.5q0 -153 -68 -272t-185 -182.5t-261 -63.5q-254 0 -399.5 185.5t-145.5 500.5q0 240 102 453q55 114 146.5 188.5
t194 105t221.5 30.5q115 0 186 45zM629 770q-120 0 -197.5 -79t-77.5 -208t77.5 -207.5t197.5 -78.5q119 0 197.5 79t78.5 207t-78.5 207.5t-197.5 79.5z" />
    <glyph glyph-name="uni0432" unicode="&#x432;" horiz-adv-x="1081" 
d="M129 0v1016h473q165 0 256.5 -71.5t91.5 -180.5q0 -82 -37.5 -135t-111.5 -92q88 -36 137 -92t49 -148q0 -133 -101 -215t-261 -82h-496zM379 819v-192h201q69 0 101 21.5t32 74.5t-32 74.5t-101 21.5h-201zM379 430v-233h211q147 0 147 118q0 115 -147 115h-211z" />
    <glyph glyph-name="uni0433" unicode="&#x433;" horiz-adv-x="888" 
d="M129 0v1016h694v-234h-436v-782h-258z" />
    <glyph glyph-name="uni0434" unicode="&#x434;" horiz-adv-x="1280" 
d="M281 0v-217h-205v450h123q69 122 82 277l45 506h755v-783h111v-450h-205v217h-706zM549 799l-27 -310q-7 -85 -23 -141t-48 -115h385v566h-287z" />
    <glyph glyph-name="uni0435" unicode="&#x435;" horiz-adv-x="1177" 
d="M1102 446h-783q12 -117 87.5 -185t191.5 -68q101 0 168.5 47.5t112.5 138.5l192 -111q-73 -151 -189 -224t-288 -73q-141 0 -260 67t-190.5 191t-71.5 279q0 156 72 279.5t193.5 190t268.5 66.5q217 0 356.5 -143t139.5 -364v-91zM598 848q-101 0 -175 -59.5t-104 -153.5
h545q-19 100 -88 156.5t-178 56.5z" />
    <glyph glyph-name="uni0436" unicode="&#x436;" horiz-adv-x="1646" 
d="M702 1016h242v-352l19 26q31 43 36 49l234 277h297l-373 -414l447 -602h-297l-301 432l-62 -67v-365h-242v365l-61 67l-301 -432h-297l446 602l-372 414h297l233 -277q11 -12 37 -49l18 -26v352z" />
    <glyph glyph-name="uni0437" unicode="&#x437;" horiz-adv-x="1009" 
d="M430 453v178q113 0 163 30.5t50 92.5q0 49 -39 77.5t-115 28.5q-59 0 -102 -27t-43 -75q0 -22 6 -37l-207 -76q-22 49 -22 103q0 131 97.5 213.5t270.5 82.5q188 0 281.5 -73.5t93.5 -192.5q0 -82 -41 -141.5t-106 -87.5q192 -72 192 -254q0 -140 -110 -232t-299 -92
q-197 0 -304.5 92.5t-107.5 239.5q0 65 25 123l225 -74q-10 -27 -10 -55q0 -58 49.5 -91.5t124.5 -33.5q68 0 112.5 38t44.5 99q0 70 -61 107t-168 37z" />
    <glyph glyph-name="uni0438" unicode="&#x438;" horiz-adv-x="1191" 
d="M375 1016v-662l422 662h266v-1016h-246v662l-422 -662h-266v1016h246z" />
    <glyph glyph-name="uni0439" unicode="&#x439;" horiz-adv-x="1191" 
d="M375 1016v-662l422 662h266v-1016h-246v662l-422 -662h-266v1016h246zM674 1386h155q0 -101 -65 -166t-168 -65q-104 0 -169 65.5t-65 165.5h156q0 -38 21 -63t57 -25t57 25t21 63z" />
    <glyph glyph-name="uni043A" unicode="&#x43a;" horiz-adv-x="1089" 
d="M129 1016h258v-332l23 33l47 57l213 242h303l-369 -414l443 -602h-302l-305 418l-53 -60v-358h-258v1016z" />
    <glyph glyph-name="uni043B" unicode="&#x43b;" horiz-adv-x="1185" 
d="M1057 1016v-1016h-250v782h-324l-47 -495q-17 -161 -80 -231t-178 -70q-74 0 -143 14l35 227q30 -12 53 -12q35 0 51 19t21 63l69 719h793z" />
    <glyph glyph-name="uni043C" unicode="&#x43c;" horiz-adv-x="1370" 
d="M799 0h-228l-209 575v-575h-233v1016h274l281 -746l283 746h274v-1016h-233v575z" />
    <glyph glyph-name="uni043D" unicode="&#x43d;" horiz-adv-x="1163" 
d="M375 1016v-367h413v367h246v-1016h-246v424h-413v-424h-246v1016h246z" />
    <glyph glyph-name="uni043E" unicode="&#x43e;" horiz-adv-x="1253" 
d="M1182 508q0 -103 -31 -191.5t-84 -151t-124 -107t-151 -66t-165 -21.5t-165 21.5t-151 66t-124 107t-84 151t-31 191.5t31 191t84 151t124 107t151 65.5t165 21.5t165 -21.5t151 -65.5t124 -107t84 -151t31 -191zM627 213q120 0 206.5 80t86.5 215t-86.5 215t-206.5 80
t-206.5 -80t-86.5 -215t86.5 -215t206.5 -80z" />
    <glyph glyph-name="uni043F" unicode="&#x43f;" horiz-adv-x="1159" 
d="M379 0h-250v1016h901v-1016h-250v782h-401v-782z" />
    <glyph glyph-name="uni0440" unicode="&#x440;" horiz-adv-x="1277" 
d="M129 -418v1434h258v-146q54 77 146.5 125.5t205.5 48.5q96 0 180.5 -37t148.5 -104t101 -169.5t37 -225.5q0 -239 -141 -388t-348 -149q-206 0 -330 154v-543h-258zM657 803q-124 0 -205 -85t-81 -210t81 -210t205 -85t205.5 85t81.5 210t-81.5 210t-205.5 85z" />
    <glyph glyph-name="uni0441" unicode="&#x441;" horiz-adv-x="1146" 
d="M872 399l209 -135q-71 -145 -192.5 -219t-282.5 -74q-150 0 -271.5 66t-192 189t-70.5 282q0 158 73.5 281.5t194.5 189t266 65.5q169 0 290 -72.5t175 -203.5l-211 -139q-78 174 -256 174q-117 0 -193.5 -81t-76.5 -214q0 -134 75.5 -214.5t194.5 -80.5q99 0 161 45.5
t107 140.5z" />
    <glyph glyph-name="uni0442" unicode="&#x442;" horiz-adv-x="942" 
d="M887 1016v-225h-291v-791h-250v791h-291v225h832z" />
    <glyph glyph-name="uni0443" unicode="&#x443;" horiz-adv-x="1118" 
d="M147 -410l41 240q48 -25 93 -25q42 0 68.5 22.5t45.5 74.5l33 90l-418 1024h293l262 -660l250 660h293l-483 -1200q-53 -132 -134 -190t-202 -58q-81 0 -142 22z" />
    <glyph glyph-name="uni0444" unicode="&#x444;" horiz-adv-x="1900" 
d="M1079 1434v-547q103 157 322 157q187 0 307.5 -148t120.5 -388q0 -242 -123.5 -389.5t-321.5 -147.5q-101 0 -179.5 40t-125.5 106v-535h-258v541q-45 -66 -122 -109t-175 -43q-203 0 -327.5 147.5t-124.5 389.5q0 158 61.5 281.5t163.5 189t225 65.5q225 0 299 -157v547
h258zM1315 819q-117 0 -184.5 -89t-67.5 -222t67.5 -222t184.5 -89q118 0 187 89.5t69 221.5t-69 221.5t-187 89.5zM586 819q-118 0 -187 -89.5t-69 -221.5t69 -221.5t187 -89.5q117 0 184.5 89t67.5 222t-67.5 222t-184.5 89z" />
    <glyph glyph-name="uni0445" unicode="&#x445;" horiz-adv-x="1017" 
d="M336 1016l170 -273l172 273h299l-318 -473l357 -543h-301l-209 334l-211 -334h-297l371 537l-328 479h295z" />
    <glyph glyph-name="uni0446" unicode="&#x446;" horiz-adv-x="1210" 
d="M1030 1016v-783h92v-450h-213v217h-780v1016h258v-783h383v783h260z" />
    <glyph glyph-name="uni0447" unicode="&#x447;" horiz-adv-x="1126" 
d="M129 684v332h242v-301q0 -209 186 -209q95 0 147 67.5t52 180.5v262h241v-1016h-241v403q-89 -122 -250 -122q-175 0 -276 106.5t-101 296.5z" />
    <glyph glyph-name="uni0448" unicode="&#x448;" horiz-adv-x="1568" 
d="M907 1016v-783h287v783h246v-1016h-1311v1016h246v-783h287v783h245z" />
    <glyph glyph-name="uni0449" unicode="&#x449;" horiz-adv-x="1619" 
d="M1440 1016v-783h92v-450h-213v217h-1190v1016h246v-783h287v783h245v-783h287v783h246z" />
    <glyph glyph-name="uni044A" unicode="&#x44a;" horiz-adv-x="1169" 
d="M31 823v193h446v-389h246q164 0 263 -81t99 -231t-99 -232.5t-263 -82.5h-496v823h-196zM477 430v-233h211q148 0 148 118q0 115 -148 115h-211z" />
    <glyph glyph-name="uni044B" unicode="&#x44b;" horiz-adv-x="1517" 
d="M1130 0v1016h259v-1016h-259zM379 627h246q164 0 263 -81t99 -231t-99 -232.5t-263 -82.5h-496v1016h250v-389zM379 430v-233h211q147 0 147 118q0 115 -147 115h-211z" />
    <glyph glyph-name="uni044C" unicode="&#x44c;" horiz-adv-x="1071" 
d="M379 627h246q164 0 263 -81t99 -231t-99 -232.5t-263 -82.5h-496v1016h250v-389zM379 430v-233h211q147 0 147 118q0 115 -147 115h-211z" />
    <glyph glyph-name="uni044D" unicode="&#x44d;" horiz-adv-x="1144" 
d="M342 408v200h473q-26 103 -96 157t-170 54q-183 0 -279 -174l-196 117q76 131 195.5 206.5t279.5 75.5q233 0 378.5 -144t145.5 -392t-142.5 -392.5t-373.5 -144.5q-174 0 -292.5 77.5t-198.5 221.5l196 133q83 -206 299 -206q100 0 165.5 52.5t88.5 158.5h-473z" />
    <glyph glyph-name="uni044E" unicode="&#x44e;" horiz-adv-x="1617" 
d="M1546 508q0 -103 -29.5 -191.5t-81 -151t-120.5 -107t-147.5 -66t-163.5 -21.5q-94 0 -181.5 27t-160.5 78.5t-124 134t-69 186.5h-94v-397h-246v1016h246v-398h94q18 104 69 186.5t124 134t160.5 78.5t181.5 27q106 0 202.5 -34.5t173 -100t121.5 -169.5t45 -232z
M1004 213q119 0 199.5 79.5t80.5 215.5t-80.5 215.5t-199.5 79.5q-120 0 -200.5 -79.5t-80.5 -215.5t80.5 -215.5t200.5 -79.5z" />
    <glyph glyph-name="uni044F" unicode="&#x44f;" horiz-adv-x="1087" 
d="M580 389l-226 -389h-270l240 416q-91 37 -147 113t-56 176q0 142 99.5 226.5t271.5 84.5h466v-1016h-249v389h-129zM709 594v217h-193q-145 0 -145 -109q0 -108 145 -108h193z" />
    <glyph glyph-name="uni0450" unicode="&#x450;" horiz-adv-x="1177" 
d="M1102 446h-783q12 -117 87.5 -185t191.5 -68q101 0 168.5 47.5t112.5 138.5l192 -111q-73 -151 -189 -224t-288 -73q-141 0 -260 67t-190.5 191t-71.5 279q0 156 72 279.5t193.5 190t268.5 66.5q217 0 356.5 -143t139.5 -364v-91zM598 848q-101 0 -175 -59.5t-104 -153.5
h545q-19 100 -88 156.5t-178 56.5zM614 1450l140 -324h-199l-254 324h313z" />
    <glyph glyph-name="uni0451" unicode="&#x451;" horiz-adv-x="1177" 
d="M1102 446h-783q12 -117 87.5 -185t191.5 -68q101 0 168.5 47.5t112.5 138.5l192 -111q-73 -151 -189 -224t-288 -73q-141 0 -260 67t-190.5 191t-71.5 279q0 156 72 279.5t193.5 190t268.5 66.5q217 0 356.5 -143t139.5 -364v-91zM598 848q-101 0 -175 -59.5t-104 -153.5
h545q-19 100 -88 156.5t-178 56.5zM651 1180v254h242v-254h-242zM283 1180v254h241v-254h-241z" />
    <glyph glyph-name="uni0452" unicode="&#x452;" horiz-adv-x="1245" 
d="M18 1130v197h127v107h258v-107h328v-197h-328v-274q57 91 148.5 139.5t204.5 48.5q165 0 262.5 -97.5t97.5 -260.5v-764q0 -172 -83.5 -263t-248.5 -91q-75 0 -153 20l33 234q46 -17 79 -17q61 0 88 36t27 110v635q0 102 -52 159.5t-153 57.5q-110 0 -180 -79.5
t-70 -207.5v-516h-258v1130h-127z" />
    <glyph glyph-name="uni0453" unicode="&#x453;" horiz-adv-x="888" 
d="M129 0v1016h694v-234h-436v-782h-258zM301 1126l139 324h314l-254 -324h-199z" />
    <glyph glyph-name="uni0454" unicode="&#x454;" horiz-adv-x="1144" 
d="M805 608v-200h-475q19 -99 90.5 -155t179.5 -56q105 0 171 49.5t110 146.5l198 -123q-84 -149 -200 -224t-291 -75q-231 0 -373.5 144.5t-142.5 392.5q0 246 148 391t376 145q344 0 471 -278l-193 -121q-42 86 -115 130t-163 44q-99 0 -171 -56t-95 -155h475z" />
    <glyph glyph-name="uni0455" unicode="&#x455;" horiz-adv-x="1024" 
d="M369 766q0 -94 239 -143q180 -37 260 -111t80 -203q0 -147 -108.5 -242.5t-292.5 -95.5q-92 0 -170 24.5t-134 68.5t-95.5 96.5t-65.5 115.5l207 132q34 -101 100.5 -160.5t161.5 -59.5q65 0 112.5 30t47.5 83q0 49 -50 78t-167 53q-162 32 -258.5 110t-96.5 208
q0 91 54.5 159.5t139 101.5t185.5 33q162 0 259.5 -61.5t160.5 -194.5l-186 -110q-32 85 -92 131.5t-138 46.5q-67 0 -110 -22.5t-43 -67.5z" />
    <glyph glyph-name="uni0456" unicode="&#x456;" horiz-adv-x="512" 
d="M127 0v1016h258v-1016h-258zM115 1163v271h282v-271h-282z" />
    <glyph glyph-name="uni0457" unicode="&#x457;" horiz-adv-x="512" 
d="M127 0v1016h258v-1016h-258zM319 1180v254h242v-254h-242zM-49 1180v254h242v-254h-242z" />
    <glyph glyph-name="uni0458" unicode="&#x458;" horiz-adv-x="512" 
d="M-100 -412l32 234q46 -17 80 -17q61 0 88 36t27 110v1065h258v-1094q0 -172 -83.5 -263t-248.5 -91q-75 0 -153 20zM115 1163v271h282v-271h-282z" />
    <glyph glyph-name="uni0459" unicode="&#x459;" horiz-adv-x="1673" 
d="M981 627h246q164 0 263 -81t99 -231t-99 -232.5t-263 -82.5h-496v782h-248l-47 -495q-17 -161 -80 -231t-178 -70q-74 0 -143 14l35 227q30 -12 63 -12q31 0 44 18.5t18 57.5l69 725h717v-389zM981 430v-233h211q147 0 147 118q0 115 -147 115h-211z" />
    <glyph glyph-name="uni045A" unicode="&#x45a;" horiz-adv-x="1730" 
d="M1034 637h250q163 0 263 -85t100 -235q0 -149 -100 -233t-263 -84h-496v426h-413v-426h-246v1016h246v-379h413v379h246v-379zM1034 426v-229h215q148 0 148 114q0 115 -148 115h-215z" />
    <glyph glyph-name="uni045B" unicode="&#x45b;" horiz-adv-x="1245" 
d="M18 1130v197h127v107h258v-107h328v-197h-328v-274q57 91 148.5 139.5t204.5 48.5q165 0 262.5 -97.5t97.5 -260.5v-686h-258v586q0 102 -52 159.5t-153 57.5q-110 0 -180 -79.5t-70 -207.5v-516h-258v1130h-127z" />
    <glyph glyph-name="uni045C" unicode="&#x45c;" horiz-adv-x="1089" 
d="M129 1016h258v-332l23 33l47 57l213 242h303l-369 -414l443 -602h-302l-305 418l-53 -60v-358h-258v1016zM379 1126l139 324h313l-253 -324h-199z" />
    <glyph glyph-name="uni045D" unicode="&#x45d;" horiz-adv-x="1191" 
d="M375 1016v-662l422 662h266v-1016h-246v662l-422 -662h-266v1016h246zM623 1450l139 -324h-199l-254 324h314z" />
    <glyph glyph-name="uni045E" unicode="&#x45e;" horiz-adv-x="1118" 
d="M147 -410l41 240q48 -25 93 -25q42 0 68.5 22.5t45.5 74.5l33 90l-418 1024h293l262 -660l250 660h293l-483 -1200q-53 -132 -134 -190t-202 -58q-81 0 -142 22zM637 1386h156q0 -100 -65.5 -165.5t-168.5 -65.5t-168 65t-65 166h155q0 -38 21 -63t57 -25t57 25t21 63z
" />
    <glyph glyph-name="uni045F" unicode="&#x45f;" horiz-adv-x="1159" 
d="M1030 0h-348v-217h-205v217h-348v1016h258v-783h385v783h258v-1016z" />
    <glyph glyph-name="endash" unicode="&#x2013;" horiz-adv-x="1183" 
d="M82 532v209h1020v-209h-1020z" />
    <glyph glyph-name="emdash" unicode="&#x2014;" horiz-adv-x="1736" 
d="M82 532v209h1573v-209h-1573z" />
    <glyph glyph-name="quoteleft" unicode="&#x2018;" horiz-adv-x="438" 
d="M350 1133v-275h-274v275l252 315l53 -37l-139 -278h108z" />
    <glyph glyph-name="quoteright" unicode="&#x2019;" horiz-adv-x="438" 
d="M88 1159v275h274v-275l-251 -315l-54 37l140 278h-109z" />
    <glyph glyph-name="quotesinglbase" unicode="&#x201a;" horiz-adv-x="438" 
d="M88 0v274h274v-274l-251 -315l-54 36l140 279h-109z" />
    <glyph glyph-name="quotedblleft" unicode="&#x201c;" horiz-adv-x="782" 
d="M694 1133v-275h-274v275l252 315l53 -37l-139 -278h108zM350 1133v-275h-274v275l252 315l53 -37l-139 -278h108z" />
    <glyph glyph-name="quotedblright" unicode="&#x201d;" horiz-adv-x="782" 
d="M88 1159v275h274v-275l-251 -315l-54 37l140 278h-109zM432 1159v275h275v-275l-252 -315l-54 37l140 278h-109z" />
    <glyph glyph-name="quotedblbase" unicode="&#x201e;" horiz-adv-x="782" 
d="M88 0v274h274v-274l-251 -315l-54 36l140 279h-109zM432 0v274h275v-274l-252 -315l-54 36l140 279h-109z" />
    <glyph glyph-name="dagger" unicode="&#x2020;" horiz-adv-x="958" 
d="M82 807v209h270v500h250v-500h275v-209h-275v-1032h-250v1032h-270z" />
    <glyph glyph-name="daggerdbl" unicode="&#x2021;" horiz-adv-x="958" 
d="M82 807v209h270v500h250v-500h275v-209h-275v-324h275v-209h-275v-499h-250v499h-270v209h270v324h-270z" />
    <glyph glyph-name="bullet" unicode="&#x2022;" horiz-adv-x="667" 
d="M88 563q0 103 71.5 174.5t174.5 71.5t174.5 -71.5t71.5 -174.5t-71.5 -174.5t-174.5 -71.5t-174.5 71.5t-71.5 174.5z" />
    <glyph glyph-name="ellipsis" unicode="&#x2026;" 
d="M82 0v274h274v-274h-274zM471 0v274h274v-274h-274zM860 0v274h275v-274h-275z" />
    <glyph glyph-name="perthousand" unicode="&#x2030;" horiz-adv-x="2316" 
d="M991 330q0 154 101 256t256 102q162 0 262 -108q100 108 262 108q155 0 255.5 -102t100.5 -256t-100.5 -256.5t-255.5 -102.5q-161 0 -262 109q-101 -109 -262 -109q-155 0 -256 102.5t-101 256.5zM88 1104q0 154 100.5 256t255.5 102t256 -102t101 -256t-101 -256.5
t-256 -102.5t-255.5 102.5t-100.5 256.5zM276 1104q0 -81 47.5 -131.5t120.5 -50.5t120.5 50.5t47.5 131.5t-47.5 131.5t-120.5 50.5t-120.5 -50.5t-47.5 -131.5zM1180 330q0 -81 47.5 -132t120.5 -51t120.5 51t47.5 132t-47.5 131.5t-120.5 50.5t-120.5 -50.5t-47.5 -131.5
zM1704 330q0 -81 47.5 -132t120.5 -51t120.5 51t47.5 132t-47.5 131.5t-120.5 50.5t-120.5 -50.5t-47.5 -131.5zM508 -14l-148 100l891 1362l148 -100z" />
    <glyph glyph-name="guilsinglleft" unicode="&#x2039;" horiz-adv-x="774" 
d="M424 1001h289l-340 -438l340 -434h-289l-342 434z" />
    <glyph glyph-name="guilsinglright" unicode="&#x203a;" horiz-adv-x="774" 
d="M61 1001h289l342 -438l-342 -434h-289l340 434z" />
    <glyph glyph-name="fraction" unicode="&#x2044;" horiz-adv-x="1107" 
d="M182 -14l-147 100l891 1362l147 -100z" />
    <glyph glyph-name="zerosuperior" unicode="&#x2070;" horiz-adv-x="794" 
d="M727 1075q0 -165 -94 -269t-236 -104q-141 0 -235 104t-94 269t94 269t235 104q142 0 236 -104t94 -269zM397 858q74 0 116 55.5t42 161.5t-42 161.5t-116 55.5t-115.5 -55t-41.5 -162t41.5 -162t115.5 -55z" />
    <glyph glyph-name="foursuperior" unicode="&#x2074;" horiz-adv-x="765" 
d="M96 836v135l332 463h172v-463h74v-135h-74v-119h-172v119h-332zM428 1208l-170 -237h170v237z" />
    <glyph glyph-name="fivesuperior" unicode="&#x2075;" horiz-adv-x="724" 
d="M111 1049l36 385h471v-136h-344l-20 -147q55 55 154 55q116 0 182.5 -66t66.5 -177q0 -121 -77.5 -191t-204.5 -70q-128 0 -202.5 64t-74.5 152q0 30 11 59l165 -31q-4 -16 -4 -26q0 -38 29.5 -59t77.5 -21q58 0 86.5 33t28.5 90q0 52 -28.5 85t-90.5 33q-80 0 -135 -69z
" />
    <glyph glyph-name="sixsuperior" unicode="&#x2076;" horiz-adv-x="724" 
d="M627 1202l-148 31q8 19 8 37q0 24 -23 38.5t-63 14.5q-67 0 -108 -59.5t-49 -155.5q63 76 168 76q106 0 173.5 -64.5t67.5 -173.5t-74.5 -176.5t-193.5 -67.5q-130 0 -210.5 89.5t-80.5 244.5q0 197 94 312q87 100 218 100q111 0 173 -53t62 -131q0 -34 -14 -62z
M385 1057q-50 0 -82.5 -31.5t-32.5 -81.5t32.5 -81.5t82.5 -31.5t82.5 31.5t32.5 81.5t-32.5 81.5t-82.5 31.5z" />
    <glyph glyph-name="sevensuperior" unicode="&#x2077;" horiz-adv-x="632" 
d="M575 1305l-276 -588h-162l275 581h-324v136h487v-129z" />
    <glyph glyph-name="eightsuperior" unicode="&#x2078;" horiz-adv-x="684" 
d="M342 702q-117 0 -191.5 61.5t-74.5 158.5q0 117 117 180q-95 55 -95 151q0 87 66.5 141t177.5 54t177.5 -54t66.5 -141q0 -97 -94 -151q116 -63 116 -180q0 -97 -74.5 -158.5t-191.5 -61.5zM342 825q50 0 78.5 28t28.5 77q0 50 -28.5 77t-78.5 27t-78 -27t-28 -77
q0 -49 28 -77t78 -28zM250 1247q0 -42 26.5 -66t65.5 -24t65.5 24t26.5 66t-26.5 66t-65.5 24t-65.5 -24t-26.5 -66z" />
    <glyph glyph-name="ninesuperior" unicode="&#x2079;" horiz-adv-x="696" 
d="M111 948l147 -30q-8 -19 -8 -37q0 -24 23 -39t63 -15q136 0 158 215q-62 -75 -168 -75t-174 64.5t-68 172.5q0 109 74.5 176.5t193.5 67.5q130 0 210.5 -89.5t80.5 -244.5q0 -197 -92 -309q-90 -103 -219 -103q-107 0 -171.5 54t-64.5 131q0 31 15 61zM352 1094
q50 0 82.5 31t32.5 81t-32.5 81.5t-82.5 31.5t-82 -31t-32 -82q0 -50 32 -81t82 -31z" />
    <glyph glyph-name="zeroinferior" unicode="&#x2080;" horiz-adv-x="794" 
d="M727 -59q0 -165 -94 -269t-236 -104q-141 0 -235 104t-94 269t93.5 268.5t235.5 103.5t236 -103.5t94 -268.5zM397 -276q74 0 116 55.5t42 161.5t-42 161.5t-116 55.5t-115.5 -55t-41.5 -162t41.5 -162t115.5 -55z" />
    <glyph glyph-name="oneinferior" unicode="&#x2081;" horiz-adv-x="520" 
d="M78 53v158q64 0 100 21t60 67h163v-717h-172v520q-44 -49 -151 -49z" />
    <glyph glyph-name="twoinferior" unicode="&#x2082;" horiz-adv-x="694" 
d="M109 -309l270 260q72 66 72 133q0 41 -23.5 62.5t-65.5 21.5q-41 0 -68.5 -22.5t-27.5 -63.5q0 -30 8 -49l-155 -23q-15 34 -15 82q0 87 71.5 154t186.5 67q119 0 187.5 -56.5t68.5 -154.5q0 -73 -28 -127t-96 -122l-134 -129h265v-142h-516v109z" />
    <glyph glyph-name="threeinferior" unicode="&#x2083;" horiz-adv-x="710" 
d="M102 -143l162 -35q-4 -16 -4 -31q0 -40 28 -61t70 -21q46 0 75.5 22.5t29.5 67.5q0 57 -42 79t-126 22v123q67 0 104 21t37 62q0 72 -84 72q-38 0 -64 -17t-26 -50q0 -23 6 -35l-149 -21q-10 27 -10 56q0 83 65.5 142.5t177.5 59.5q121 0 183.5 -48.5t62.5 -129.5
q0 -50 -21.5 -85t-70.5 -68q58 -22 93.5 -69.5t35.5 -117.5q0 -104 -76 -165.5t-205 -61.5q-121 0 -193.5 60.5t-72.5 154.5q0 49 14 74z" />
    <glyph glyph-name="fourinferior" unicode="&#x2084;" horiz-adv-x="765" 
d="M96 -299v135l332 463h172v-463h74v-135h-74v-119h-172v119h-332zM428 74l-170 -238h170v238z" />
    <glyph glyph-name="fiveinferior" unicode="&#x2085;" horiz-adv-x="724" 
d="M111 -86l36 385h471v-135h-344l-20 -148q56 56 154 56q116 0 182.5 -66.5t66.5 -177.5q0 -121 -77.5 -190.5t-204.5 -69.5q-128 0 -202.5 64t-74.5 151q0 30 11 59l165 -30q-4 -16 -4 -27q0 -38 29.5 -59t77.5 -21q58 0 86.5 33t28.5 90q0 52 -28.5 85.5t-90.5 33.5
q-79 0 -135 -70z" />
    <glyph glyph-name="sixinferior" unicode="&#x2086;" horiz-adv-x="724" 
d="M627 68l-148 30q8 19 8 37q0 24 -23 38.5t-63 14.5q-67 0 -108 -59.5t-49 -155.5q63 76 168 76q106 0 173.5 -64.5t67.5 -172.5q0 -109 -74.5 -176.5t-193.5 -67.5q-130 0 -210.5 89.5t-80.5 244.5q0 196 94 311q87 100 218 100q111 0 173 -53t62 -131q0 -33 -14 -61z
M385 -78q-50 0 -82.5 -31t-32.5 -81t32.5 -81.5t82.5 -31.5t82.5 31.5t32.5 81.5t-32.5 81t-82.5 31z" />
    <glyph glyph-name="seveninferior" unicode="&#x2087;" horiz-adv-x="632" 
d="M575 170l-276 -588h-162l275 582h-324v135h487v-129z" />
    <glyph glyph-name="eightinferior" unicode="&#x2088;" horiz-adv-x="684" 
d="M342 -432q-117 0 -191.5 61t-74.5 158q0 117 117 180q-95 55 -95 152q0 87 66 140.5t178 53.5t178 -53.5t66 -140.5q0 -98 -94 -152q116 -63 116 -180q0 -97 -74.5 -158t-191.5 -61zM342 -309q50 0 78.5 27.5t28.5 76.5q0 50 -28.5 77.5t-78.5 27.5t-78 -27t-28 -78
q0 -49 28 -76.5t78 -27.5zM250 113q0 -42 26.5 -66t65.5 -24t65.5 24t26.5 66t-26.5 66t-65.5 24t-65.5 -24t-26.5 -66z" />
    <glyph glyph-name="nineinferior" unicode="&#x2089;" horiz-adv-x="696" 
d="M111 -186l147 -31q-8 -19 -8 -37q0 -24 23 -38.5t63 -14.5q136 0 158 215q-63 -76 -168 -76q-106 0 -174 65t-68 173t74.5 175.5t193.5 67.5q130 0 210.5 -89t80.5 -244q0 -198 -92 -310q-89 -102 -219 -102q-107 0 -171.5 53.5t-64.5 130.5q0 32 15 62zM352 -41
q50 0 82.5 31.5t32.5 81.5t-32.5 81t-82.5 31t-82 -31t-32 -81q0 -51 32 -82t82 -31z" />
    <glyph glyph-name="Euro" unicode="&#x20ac;" horiz-adv-x="1613" 
d="M1282 520l238 -86q-159 -463 -627 -463q-244 0 -411.5 132t-229.5 366h-180l86 188h61q-2 18 -2 60q0 36 2 59h-147l86 189h94q66 229 242 363t405 134q468 0 614 -411l-243 -109q-45 137 -136.5 203.5t-242.5 66.5q-130 0 -225.5 -64.5t-143.5 -182.5h570l-86 -189h-521
q-2 -23 -2 -59q0 -12 1 -32t1 -28h607l-86 -188h-484q50 -118 146.5 -183t224.5 -65q288 0 389 299z" />
    <glyph glyph-name="trademark" unicode="&#x2122;" horiz-adv-x="1761" 
d="M66 1282v152h655v-152h-244v-668h-168v668h-243zM801 614v820h186l248 -619l248 619h186v-820h-168v459l-184 -459h-164l-184 459v-459h-168z" />
    <glyph glyph-name="Omega" unicode="&#x2126;" horiz-adv-x="1605" 
d="M1487 197v-197h-590v225q145 83 244.5 232.5t99.5 328.5q0 187 -121.5 306.5t-316.5 119.5t-316.5 -119.5t-121.5 -306.5q0 -179 99.5 -328.5t244.5 -232.5v-225h-590v197h282q-60 47 -111 104t-97 132t-72.5 170t-26.5 198q0 142 54.5 265.5t149 210t225.5 136t280 49.5
t279.5 -49.5t225 -136t149 -210t54.5 -265.5q0 -103 -26.5 -198t-72.5 -170t-97 -132t-111 -104h283z" />
    <glyph glyph-name="onethird" unicode="&#x2153;" horiz-adv-x="1548" 
d="M926 274l161 -34q-4 -16 -4 -31q0 -40 28.5 -61t70.5 -21q46 0 75 22.5t29 67.5q0 57 -42 78.5t-126 21.5v123q67 0 104.5 21.5t37.5 62.5q0 72 -84 72q-38 0 -64.5 -17.5t-26.5 -50.5q0 -20 7 -34l-150 -21q-10 27 -10 55q0 83 66 143t178 60q120 0 182.5 -48.5
t62.5 -129.5q0 -50 -22 -85.5t-70 -68.5q58 -22 93.5 -69t35.5 -117q0 -104 -75.5 -165.5t-204.5 -61.5q-121 0 -194 60.5t-73 154.5q0 46 15 73zM371 -14l-148 100l891 1362l148 -100zM78 1188v158q64 0 100 21t60 67h163v-717h-172v520q-44 -49 -151 -49z" />
    <glyph glyph-name="twothirds" unicode="&#x2154;" horiz-adv-x="1703" 
d="M1081 274l162 -34q-4 -16 -4 -31q0 -40 28 -61t70 -21q46 0 75.5 22.5t29.5 67.5q0 57 -42 78.5t-126 21.5v123q67 0 104 21.5t37 62.5q0 72 -84 72q-38 0 -64 -17.5t-26 -50.5q0 -22 6 -34l-149 -21q-11 29 -11 55q0 83 66 143t178 60q121 0 183.5 -48.5t62.5 -129.5
q0 -50 -22 -85.5t-70 -68.5q58 -22 93.5 -69t35.5 -117q0 -104 -76 -165.5t-205 -61.5q-121 0 -193.5 60.5t-72.5 154.5q0 48 14 73zM528 -14l-147 100l891 1362l147 -100zM106 825l271 260q72 66 72 134q0 41 -23.5 62.5t-65.5 21.5q-41 0 -68.5 -22.5t-27.5 -63.5
q0 -31 8 -50l-155 -22q-15 35 -15 82q0 87 71.5 154t186.5 67q119 0 187.5 -56.5t68.5 -154.5q0 -73 -28 -127.5t-96 -122.5l-134 -129h265v-141h-517v108z" />
    <glyph glyph-name="oneeighth" unicode="&#x215b;" horiz-adv-x="1546" 
d="M78 1188v158q64 0 100 21t60 67h163v-717h-172v520q-44 -49 -151 -49zM373 -14l-148 100l891 1362l148 -100zM1176 -14q-117 0 -192 61t-75 158q0 117 117 180q-94 54 -94 152q0 87 66 140.5t178 53.5q111 0 177 -53.5t66 -140.5q0 -98 -94 -152q117 -63 117 -180
q0 -97 -74.5 -158t-191.5 -61zM1176 109q50 0 78 27.5t28 76.5q0 50 -28 77t-78 27t-78.5 -27t-28.5 -77q0 -49 28.5 -76.5t78.5 -27.5zM1083 530q0 -42 27 -66t66 -24t65.5 24t26.5 66t-26.5 66.5t-65.5 24.5t-66 -24.5t-27 -66.5z" />
    <glyph glyph-name="threeeighths" unicode="&#x215c;" horiz-adv-x="1667" 
d="M1296 -14q-117 0 -191.5 61t-74.5 158q0 117 117 180q-94 54 -94 152q0 87 66 140.5t177 53.5q112 0 178 -53.5t66 -140.5q0 -98 -94 -152q117 -63 117 -180q0 -97 -75 -158t-192 -61zM1296 109q50 0 78.5 27.5t28.5 76.5q0 50 -28.5 77t-78.5 27t-78 -27t-28 -77
q0 -49 28 -76.5t78 -27.5zM1204 530q0 -42 26.5 -66t65.5 -24t66 24t27 66t-27 66.5t-66 24.5t-65.5 -24.5t-26.5 -66.5zM494 -14l-148 100l891 1362l147 -100zM102 991l162 -35q-4 -16 -4 -30q0 -40 28 -61t70 -21q46 0 75.5 22.5t29.5 67.5q0 57 -42 78.5t-126 21.5v123
q67 0 104 21.5t37 62.5q0 72 -84 72q-38 0 -64 -17.5t-26 -50.5q0 -23 6 -35l-149 -20q-10 27 -10 55q0 83 65.5 143t177.5 60q121 0 183.5 -48.5t62.5 -129.5q0 -50 -22 -85.5t-70 -68.5q58 -22 93.5 -69t35.5 -117q0 -104 -76 -166t-205 -62q-121 0 -193.5 61t-72.5 155
q0 48 14 73z" />
    <glyph glyph-name="fiveeighths" unicode="&#x215d;" horiz-adv-x="1671" 
d="M477 -14l-147 100l891 1362l147 -100zM1300 -14q-117 0 -191.5 61t-74.5 158q0 117 117 180q-94 54 -94 152q0 87 66 140.5t177 53.5q112 0 178 -53.5t66 -140.5q0 -98 -94 -152q117 -63 117 -180q0 -97 -75 -158t-192 -61zM1300 109q50 0 78.5 27.5t28.5 76.5
q0 50 -28.5 77t-78.5 27t-78 -27t-28 -77q0 -49 28 -76.5t78 -27.5zM1208 530q0 -42 26.5 -66t65.5 -24t66 24t27 66t-27 66.5t-66 24.5t-65.5 -24.5t-26.5 -66.5zM98 1049l37 385h471v-136h-344l-20 -147q55 55 153 55q116 0 183 -66t67 -177q0 -121 -78 -191t-205 -70
q-128 0 -202 64t-74 152q0 32 10 59l166 -31q-4 -16 -4 -26q0 -38 29.5 -59t77.5 -21q58 0 86 33t28 90q0 52 -28.5 85t-90.5 33q-80 0 -135 -69z" />
    <glyph glyph-name="seveneighths" unicode="&#x215e;" horiz-adv-x="1546" 
d="M352 -14l-147 100l891 1362l147 -100zM1176 -14q-117 0 -192 61t-75 158q0 117 117 180q-94 54 -94 152q0 87 66 140.5t178 53.5q111 0 177 -53.5t66 -140.5q0 -98 -94 -152q117 -63 117 -180q0 -97 -74.5 -158t-191.5 -61zM1176 109q50 0 78 27.5t28 76.5q0 50 -28 77
t-78 27t-78.5 -27t-28.5 -77q0 -49 28.5 -76.5t78.5 -27.5zM1083 530q0 -42 27 -66t66 -24t65.5 24t26.5 66t-26.5 66.5t-65.5 24.5t-66 -24.5t-27 -66.5zM594 1305l-277 -588h-161l274 581h-324v136h488v-129z" />
    <glyph glyph-name="arrowleft" unicode="&#x2190;" horiz-adv-x="1218" 
d="M721 317l-154 -153l-473 473l473 473l154 -154l-215 -215h629v-209h-629z" />
    <glyph glyph-name="arrowup" unicode="&#x2191;" horiz-adv-x="1101" 
d="M1024 805l-154 -154l-215 215v-628h-209v628l-215 -215l-153 154l473 473z" />
    <glyph glyph-name="arrowright" unicode="&#x2192;" horiz-adv-x="1218" 
d="M651 164l-153 153l215 215h-629v209h629l-215 215l153 154l473 -473z" />
    <glyph glyph-name="arrowdown" unicode="&#x2193;" horiz-adv-x="1101" 
d="M870 864l154 -153l-473 -473l-473 473l153 153l215 -215v629h209v-629z" />
    <glyph glyph-name="arrowboth" unicode="&#x2194;" horiz-adv-x="1638" 
d="M721 317l-154 -153l-473 473l473 473l154 -154l-215 -215h627l-215 215l153 154l473 -473l-473 -473l-153 153l215 215h-627z" />
    <glyph glyph-name="arrowupdn" unicode="&#x2195;" horiz-adv-x="1101" 
d="M870 618l154 -153l-473 -473l-473 473l153 153l215 -215v627l-215 -215l-153 154l473 473l473 -473l-154 -154l-215 215v-627z" />
    <glyph glyph-name="uni2196" unicode="&#x2196;" horiz-adv-x="1107" 
d="M375 332h-217v669h669v-217h-303l445 -446l-148 -148l-446 445v-303z" />
    <glyph glyph-name="uni2197" unicode="&#x2197;" horiz-adv-x="1107" 
d="M950 332h-217v303l-446 -445l-148 148l445 446h-303v217h669v-669z" />
    <glyph glyph-name="uni2198" unicode="&#x2198;" horiz-adv-x="1107" 
d="M733 891h217v-670h-669v217h303l-445 447l148 147l446 -444v303z" />
    <glyph glyph-name="uni2199" unicode="&#x2199;" horiz-adv-x="1107" 
d="M158 891h217v-303l446 444l148 -147l-445 -447h303v-217h-669v670z" />
    <glyph glyph-name="partialdiff" unicode="&#x2202;" horiz-adv-x="1210" 
d="M547 1257q-75 0 -119.5 -34.5t-44.5 -83.5q0 -16 4 -25l-219 -92q-29 48 -29 115q0 56 22.5 111t67.5 104t125 79.5t183 30.5q144 0 257 -61.5t185 -172.5t109.5 -262t37.5 -335q0 -193 -60 -341t-181 -233.5t-289 -85.5q-225 0 -368.5 131.5t-143.5 346.5
q0 214 141.5 355.5t349.5 141.5q210 0 318 -125q-25 192 -120.5 314t-225.5 122zM614 729q-123 0 -199.5 -79t-76.5 -199q0 -118 76.5 -190.5t183.5 -72.5q112 0 194 74.5t82 202.5q0 119 -76 191.5t-184 72.5z" />
    <glyph glyph-name="Delta" unicode="&#x2206;" horiz-adv-x="1437" 
d="M10 0l580 1434h258l579 -1434h-1417zM666 961l-275 -719h656l-275 719l-16 45l-37 110l-37 -110z" />
    <glyph glyph-name="product" unicode="&#x220f;" horiz-adv-x="1404" 
d="M150 -418v1852h1105v-1852h-270v1602h-565v-1602h-270z" />
    <glyph glyph-name="summation" unicode="&#x2211;" horiz-adv-x="1198" 
d="M461 594l-379 590v250h1036v-250h-717l371 -590l-391 -590h752v-250h-1072v250z" />
    <glyph glyph-name="minus" unicode="&#x2212;" horiz-adv-x="1155" 
d="M82 643v209h991v-209h-991z" />
    <glyph glyph-name="radical" unicode="&#x221a;" horiz-adv-x="1286" 
d="M715 0h-258l-191 524h-211v205h414l123 -364l397 1069h258z" />
    <glyph glyph-name="infinity" unicode="&#x221e;" horiz-adv-x="1585" 
d="M84 614q0 154 95.5 250.5t248.5 96.5q114 0 198.5 -54t166.5 -151q76 95 163.5 150t200.5 55q153 0 248.5 -96.5t95.5 -250.5t-95 -250t-249 -96q-113 0 -200.5 55t-163.5 150q-82 -97 -166.5 -151t-198.5 -54q-154 0 -249 96t-95 250zM285 614q0 -69 47 -117t119 -48
q63 0 116 42t117 123q-66 82 -118 124t-115 42q-72 0 -119 -48.5t-47 -117.5zM1135 780q-65 0 -116 -41t-118 -125q65 -83 117 -124t117 -41q72 0 118.5 48t46.5 117t-46.5 117.5t-118.5 48.5z" />
    <glyph glyph-name="integral" unicode="&#x222b;" horiz-adv-x="708" 
d="M209 -82v1241q0 183 98.5 280t261.5 97q67 0 129 -23l-45 -227q-37 12 -71 12q-115 0 -115 -133v-1235q0 -187 -90 -281.5t-258 -94.5q-70 0 -129 22l45 231q37 -16 71 -16q55 0 79 30t24 97z" />
    <glyph glyph-name="approxequal" unicode="&#x2248;" horiz-adv-x="944" 
d="M334 879q-24 0 -39.5 -13.5t-15.5 -38.5t14 -47l-180 -32q-31 48 -31 108q0 98 61 155.5t156 57.5q55 0 99.5 -13.5t72 -32.5t50 -37.5t44.5 -32t45 -13.5q25 0 40.5 13t15.5 38q0 23 -15 47l180 33q31 -48 31 -113q0 -97 -61 -152.5t-156 -55.5q-55 0 -99.5 13.5t-72 32
t-50 37.5t-44.5 32.5t-45 13.5zM334 489q-25 0 -40 -13t-15 -38t14 -47l-180 -33q-31 48 -31 109q0 98 61 155.5t156 57.5q55 0 99.5 -13.5t72 -32t50 -37.5t44.5 -32.5t45 -13.5q25 0 40.5 13t15.5 38q0 23 -15 47l180 33q31 -48 31 -113q0 -97 -61 -153t-156 -56
q-55 0 -99.5 13.5t-72 32t-50 37.5t-44.5 32.5t-45 13.5z" />
    <glyph glyph-name="notequal" unicode="&#x2260;" horiz-adv-x="1155" 
d="M82 807v209h553l172 297l180 -107l-110 -190h196v-209h-315l-117 -201h432v-209h-553l-172 -297l-180 107l111 190h-197v209h315l117 201h-432z" />
    <glyph glyph-name="lessequal" unicode="&#x2264;" horiz-adv-x="1155" 
d="M131 739v201l895 438v-254l-612 -284l612 -285v-256zM82 0v209h991v-209h-991z" />
    <glyph glyph-name="greaterequal" unicode="&#x2265;" horiz-adv-x="1155" 
d="M1026 940v-201l-895 -440v256l612 285l-612 284v254zM82 0v209h991v-209h-991z" />
    <glyph glyph-name="lozenge" unicode="&#x25ca;" horiz-adv-x="1241" 
d="M1194 717l-442 -717h-263l-442 717l442 717h263zM621 225l303 492l-303 491l-304 -491z" />
    <glyph glyph-name="apple" unicode="&#xf8ff;" horiz-adv-x="1531" 
d="M1372 1264v-1219q0 -18 -12.5 -31.5t-32.5 -13.5q-8 0 -14 2l-547 158l-547 -158q-6 -2 -14 -2q-20 0 -32.5 13.5t-12.5 31.5v1219q0 36 33 45l552 159q20 5 21 5l20 -5l553 -159q33 -9 33 -45zM721 750v620l-471 -137q12 -190 146 -328t325 -155zM811 1370v-620
q191 17 325 155t146 328zM248 948v-844l473 138v417q-151 12 -275 88.5t-198 200.5zM1284 104v844q-76 -125 -199 -201t-274 -88v-417z" />
    <glyph glyph-name="a.alt" horiz-adv-x="1265" 
d="M1137 1016v-1016h-258v131q-96 -160 -314 -160q-140 0 -251 63t-176.5 186t-65.5 288q0 122 42 225.5t111 170t155 103.5t177 37q222 0 322 -143v115h258zM614 213q123 0 202 83t79 212t-79 212t-202 83t-201.5 -83t-78.5 -212t78.5 -212t201.5 -83z" />
    <glyph glyph-name="aacute.alt" horiz-adv-x="1265" 
d="M1137 1016v-1016h-258v131q-96 -160 -314 -160q-140 0 -251 63t-176.5 186t-65.5 288q0 122 42 225.5t111 170t155 103.5t177 37q222 0 322 -143v115h258zM614 213q123 0 202 83t79 212t-79 212t-202 83t-201.5 -83t-78.5 -212t78.5 -212t201.5 -83zM449 1126l139 324
h313l-254 -324h-198z" />
    <glyph glyph-name="acircumflex.alt" horiz-adv-x="1265" 
d="M1137 1016v-1016h-258v131q-96 -160 -314 -160q-140 0 -251 63t-176.5 186t-65.5 288q0 122 42 225.5t111 170t155 103.5t177 37q222 0 322 -143v115h258zM614 213q123 0 202 83t79 212t-79 212t-202 83t-201.5 -83t-78.5 -212t78.5 -212t201.5 -83zM309 1126l232 322
h184l231 -322h-202l-121 123l-121 -123h-203z" />
    <glyph glyph-name="adieresis.alt" horiz-adv-x="1265" 
d="M1137 1016v-1016h-258v131q-96 -160 -314 -160q-140 0 -251 63t-176.5 186t-65.5 288q0 122 42 225.5t111 170t155 103.5t177 37q222 0 322 -143v115h258zM614 213q123 0 202 83t79 212t-79 212t-202 83t-201.5 -83t-78.5 -212t78.5 -212t201.5 -83zM696 1180v254h242
v-254h-242zM328 1180v254h241v-254h-241z" />
    <glyph glyph-name="atilde.alt" horiz-adv-x="1265" 
d="M1137 1016v-1016h-258v131q-96 -160 -314 -160q-140 0 -251 63t-176.5 186t-65.5 288q0 122 42 225.5t111 170t155 103.5t177 37q222 0 322 -143v115h258zM614 213q123 0 202 83t79 212t-79 212t-202 83t-201.5 -83t-78.5 -212t78.5 -212t201.5 -83zM463 1262
q-20 0 -33.5 -12.5t-13.5 -32.5q0 -22 14 -54l-151 -30q-29 45 -29 108q0 87 62 136.5t139 49.5q52 0 95 -14t70.5 -33.5t50.5 -39.5t47 -34t48 -14q20 0 33.5 12.5t13.5 32.5q0 22 -14 54l151 30q29 -45 29 -108q0 -89 -62 -138t-139 -49q-52 0 -95 14t-70.5 34t-50.5 40
t-47 34t-48 14z" />
    <glyph glyph-name="agrave.alt" horiz-adv-x="1265" 
d="M1137 1016v-1016h-258v131q-96 -160 -314 -160q-140 0 -251 63t-176.5 186t-65.5 288q0 122 42 225.5t111 170t155 103.5t177 37q222 0 322 -143v115h258zM614 213q123 0 202 83t79 212t-79 212t-202 83t-201.5 -83t-78.5 -212t78.5 -212t201.5 -83zM639 1450l139 -324
h-198l-254 324h313z" />
    <glyph glyph-name="abreve.alt" horiz-adv-x="1265" 
d="M1137 1016v-1016h-258v131q-96 -160 -314 -160q-140 0 -251 63t-176.5 186t-65.5 288q0 122 42 225.5t111 170t155 103.5t177 37q222 0 322 -143v115h258zM614 213q123 0 202 83t79 212t-79 212t-202 83t-201.5 -83t-78.5 -212t78.5 -212t201.5 -83zM711 1386h155
q0 -101 -65 -166t-168 -65t-168.5 65.5t-65.5 165.5h156q0 -38 21 -63t57 -25t57 25t21 63z" />
    <glyph glyph-name="aogonek.alt" horiz-adv-x="1265" 
d="M784 -213q0 127 121 213h-26v131q-96 -160 -314 -160q-140 0 -251 63t-176.5 186t-65.5 288q0 122 42 225.5t111 170t155 103.5t177 37q222 0 322 -143v115h258v-1016q-148 -85 -148 -160q0 -37 23.5 -57.5t60.5 -20.5q23 0 45 5l23 -158q-58 -15 -123 -15q-92 0 -163 52
t-71 141zM614 213q123 0 202 83t79 212t-79 212t-202 83t-201.5 -83t-78.5 -212t78.5 -212t201.5 -83z" />
    <glyph glyph-name="amacron.alt" horiz-adv-x="1265" 
d="M1137 1016v-1016h-258v131q-96 -160 -314 -160q-140 0 -251 63t-176.5 186t-65.5 288q0 122 42 225.5t111 170t155 103.5t177 37q222 0 322 -143v115h258zM614 213q123 0 202 83t79 212t-79 212t-202 83t-201.5 -83t-78.5 -212t78.5 -212t201.5 -83zM358 1204v193h508
v-193h-508z" />
    <glyph glyph-name="aring.alt" horiz-adv-x="1265" 
d="M1137 1016v-1016h-258v131q-96 -160 -314 -160q-140 0 -251 63t-176.5 186t-65.5 288q0 122 42 225.5t111 170t155 103.5t177 37q222 0 322 -143v115h258zM614 213q123 0 202 83t79 212t-79 212t-202 83t-201.5 -83t-78.5 -212t78.5 -212t201.5 -83zM408 1300
q0 82 57 138.5t139 56.5t139.5 -56.5t57.5 -138.5q0 -81 -57.5 -137.5t-139.5 -56.5t-139 56t-57 138zM537 1300q0 -32 18 -50.5t49 -18.5t49.5 18.5t18.5 50.5t-18.5 51t-49.5 19t-49 -19t-18 -51z" />
    <glyph glyph-name="ae.alt" horiz-adv-x="2000" 
d="M1137 1016v-94q41 48 121.5 85t171.5 37q217 0 356 -143t139 -364v-91h-782q12 -117 87 -185t191 -68q101 0 168.5 47.5t112.5 138.5l192 -111q-73 -151 -189 -224t-288 -73q-77 0 -154.5 34t-125.5 93v-98h-258v131q-96 -160 -314 -160q-140 0 -251 63t-176.5 186
t-65.5 288q0 122 42 225.5t111 170t155 103.5t177 37q222 0 322 -143v115h258zM614 213q123 0 202 83t79 212t-79 212t-202 83t-201.5 -83t-78.5 -212t78.5 -212t201.5 -83zM1421 848q-101 0 -174.5 -59t-103.5 -154h545q-19 100 -88.5 156.5t-178.5 56.5z" />
    <glyph glyph-name="aeacute.alt" horiz-adv-x="2000" 
d="M1137 1016v-94q41 48 121.5 85t171.5 37q217 0 356 -143t139 -364v-91h-782q12 -117 87 -185t191 -68q101 0 168.5 47.5t112.5 138.5l192 -111q-73 -151 -189 -224t-288 -73q-77 0 -154.5 34t-125.5 93v-98h-258v131q-96 -160 -314 -160q-140 0 -251 63t-176.5 186
t-65.5 288q0 122 42 225.5t111 170t155 103.5t177 37q222 0 322 -143v115h258zM614 213q123 0 202 83t79 212t-79 212t-202 83t-201.5 -83t-78.5 -212t78.5 -212t201.5 -83zM1421 848q-101 0 -174.5 -59t-103.5 -154h545q-19 100 -88.5 156.5t-178.5 56.5zM905 1126l139 324
h314l-254 -324h-199z" />
    <glyph glyph-name="alpha.alt" horiz-adv-x="1327" 
d="M1137 1016v-713q0 -90 65 -90q20 0 31 4l41 -217q-76 -29 -146 -29q-97 0 -154 47.5t-71 135.5q-61 -93 -142 -138t-196 -45q-140 0 -251 63t-176.5 186t-65.5 288q0 122 42 225.5t111 170t155 103.5t177 37q222 0 322 -143v115h258zM614 213q123 0 202 83t79 212
t-79 212t-202 83t-201.5 -83t-78.5 -212t78.5 -212t201.5 -83z" />
    <glyph glyph-name="alphatonos.alt" horiz-adv-x="1327" 
d="M1137 1016v-713q0 -90 65 -90q20 0 31 4l41 -217q-76 -29 -146 -29q-97 0 -154 47.5t-71 135.5q-61 -93 -142 -138t-196 -45q-140 0 -251 63t-176.5 186t-65.5 288q0 122 42 225.5t111 170t155 103.5t177 37q222 0 322 -143v115h258zM614 213q123 0 202 83t79 212
t-79 212t-202 83t-201.5 -83t-78.5 -212t78.5 -212t201.5 -83zM487 1110l95 324h295l-209 -324h-181z" />
    <glyph glyph-name="delta.alt" horiz-adv-x="1183" 
d="M395 1153q0 -62 72 -105.5t264 -101.5q187 -55 278 -183t91 -304q0 -143 -72 -256t-187.5 -172.5t-250.5 -59.5q-103 0 -193.5 31.5t-160.5 91t-111 154t-41 211.5q0 78 23 147t58 116.5t78.5 85t82.5 58t73 29.5q-106 27 -174.5 102.5t-68.5 157.5q0 145 119 226t315 81
q106 0 198.5 -26t156 -85t63.5 -141t-41 -141l-228 78q6 12 6 27q0 37 -42.5 62.5t-118.5 25.5q-83 0 -136 -28t-53 -81zM590 197q115 0 189.5 71.5t74.5 192.5q0 119 -77 191.5t-187 72.5t-187 -72.5t-77 -191.5q0 -121 74.5 -192.5t189.5 -71.5z" />
    <glyph glyph-name="zero.slash" horiz-adv-x="1478" 
d="M1386 717q0 -335 -181 -540.5t-466 -205.5t-466 205.5t-181 540.5t181 540t466 205t466 -205t181 -540zM739 221q169 0 273 133t104 363q0 170 -59 291l-449 -762q64 -25 131 -25zM362 717q0 -168 60 -291l448 762q-62 24 -131 24q-169 0 -273 -132.5t-104 -362.5z" />
    <glyph glyph-name="zerosuperior.slash" horiz-adv-x="794" 
d="M727 1075q0 -165 -94 -269t-236 -104q-141 0 -235 104t-94 269t94 269t235 104q142 0 236 -104t94 -269zM397 858q74 0 116 55.5t42 161.5q0 73 -18 119l-168 -334q6 -2 28 -2zM240 1075q0 -73 18 -119l168 334q-6 2 -29 2q-74 0 -115.5 -55t-41.5 -162z" />
    <glyph glyph-name="zeroinferior.slash" horiz-adv-x="794" 
d="M727 -59q0 -165 -94 -269t-236 -104q-141 0 -235 104t-94 269t93.5 268.5t235.5 103.5t236 -103.5t94 -268.5zM397 -276q74 0 116 55.5t42 161.5q0 72 -18 118l-168 -333q6 -2 28 -2zM240 -59q0 -73 18 -119l168 334q-6 2 -29 2q-74 0 -115.5 -55t-41.5 -162z" />
    <glyph glyph-name="zero.posn" horiz-adv-x="1384" 
d="M1300 578q0 -149 -50.5 -267.5t-136 -191t-193 -110.5t-228.5 -38t-229 38t-193.5 110.5t-135.5 191t-50 267.5q0 120 33 220.5t90 171t134.5 119.5t165.5 72t185 23q121 0 228.5 -37.5t193 -110t136 -191t50.5 -267.5zM692 213q143 0 244.5 97.5t101.5 267.5t-101 267
t-245 97t-245 -97t-101 -267t101.5 -267.5t244.5 -97.5z" />
    <glyph glyph-name="one.posn" horiz-adv-x="768" 
d="M66 725v250q127 0 193.5 42t113.5 138h245v-1155h-262v821q-56 -56 -119.5 -76t-170.5 -20z" />
    <glyph glyph-name="two.posn" horiz-adv-x="1077" 
d="M129 166l471 395q129 112 129 240q0 68 -44 112.5t-120 44.5q-81 0 -133.5 -48t-52.5 -126q0 -43 18 -92l-237 -47q-39 73 -39 160q0 161 121.5 270t314.5 109q200 0 315 -103t115 -268q0 -204 -209 -387l-209 -184h414v-242h-854v166z" />
    <glyph glyph-name="three.posn" 
d="M121 360l248 -61q-9 -21 -9 -59q0 -98 63 -148.5t181 -50.5q230 0 230 197q0 202 -361 202v201q303 0 303 180q0 72 -52.5 109t-141.5 37q-92 0 -149.5 -44.5t-57.5 -121.5q0 -42 12 -70l-244 -41q-18 56 -18 113q0 161 125.5 271t329.5 110q208 0 331 -86t123 -242
q0 -103 -57 -177.5t-150 -115.5q53 -20 98 -47t85 -66t63 -93.5t23 -118.5q0 -197 -136.5 -309.5t-355.5 -112.5q-240 0 -373 116t-133 301q0 69 23 127z" />
    <glyph glyph-name="four.posn" horiz-adv-x="1236" 
d="M94 82v233l651 840h263v-840h155v-233h-155v-238h-263v238h-651zM745 784l-364 -469h364v469z" />
    <glyph glyph-name="five.posn" horiz-adv-x="1245" 
d="M129 451l66 704h845v-217h-649l-35 -291q122 125 320 125q211 0 335 -124.5t124 -342.5q0 -101 -35.5 -189.5t-102 -155.5t-168 -105.5t-225.5 -38.5q-113 0 -207.5 32.5t-156 88t-95.5 128t-34 152.5q0 69 20 113l244 -66q-6 -21 -6 -53q0 -74 68.5 -122t168.5 -48
q125 0 198 70.5t73 199.5q0 122 -72.5 191t-190.5 69q-92 0 -167.5 -46t-118.5 -126z" />
    <glyph glyph-name="six.posn" horiz-adv-x="1212" 
d="M1036 877l-243 53q16 40 16 67q0 67 -44 104.5t-118 37.5q-85 0 -154.5 -62t-107.5 -155.5t-43 -198.5q117 133 311 133q199 0 327 -115t128 -321q0 -212 -135.5 -330.5t-362.5 -118.5q-114 0 -209 39.5t-166.5 117t-111 201t-39.5 281.5q0 146 38 277t108.5 232
t180 160.5t242.5 59.5q188 0 301 -87t113 -238q0 -73 -31 -137zM608 639q-105 0 -173 -61.5t-68 -165.5t68 -166t173 -62t173.5 62t68.5 166t-68.5 165.5t-173.5 61.5z" />
    <glyph glyph-name="seven.posn" horiz-adv-x="1079" 
d="M967 926l-408 -1082h-262l403 1069h-624v242h891v-229z" />
    <glyph glyph-name="eight.posn" horiz-adv-x="1200" 
d="M600 -29q-146 0 -255 44t-172.5 136t-63.5 224q0 117 65.5 201.5t171.5 128.5q-190 97 -190 284q0 157 117 253.5t327 96.5t327 -96.5t117 -253.5q0 -187 -190 -284q106 -44 172 -128.5t66 -201.5q0 -196 -134.5 -300t-357.5 -104zM600 180q106 0 173 56t67 149
q0 92 -67 146.5t-173 54.5t-173 -54.5t-67 -146.5q0 -93 67 -149t173 -56zM399 969q0 -83 57.5 -130.5t143.5 -47.5t143.5 47.5t57.5 130.5t-57.5 130.5t-143.5 47.5t-143.5 -47.5t-57.5 -130.5z" />
    <glyph glyph-name="nine.posn" horiz-adv-x="1214" 
d="M180 270l244 -53q-16 -40 -16 -67q0 -134 184 -134q127 0 204.5 120t77.5 296q-117 -133 -311 -133q-199 0 -326.5 115t-127.5 321q0 209 137 329t360 120q249 0 388 -159.5t139 -479.5q0 -207 -62.5 -370.5t-186.5 -261t-292 -97.5q-206 0 -324 83t-118 234q0 76 30 137
zM606 512q110 0 177 62t67 167t-67 167.5t-177 62.5q-109 0 -174 -62.5t-65 -167.5t65 -167t174 -62z" />
    <glyph glyph-name="zero.posn.slash" horiz-adv-x="1384" 
d="M1300 578q0 -149 -50.5 -267.5t-136 -191t-193 -110.5t-228.5 -38t-229 38t-193.5 110.5t-135.5 191t-50 267.5q0 120 33 220.5t90 171t134.5 119.5t165.5 72t185 23q121 0 228.5 -37.5t193 -110t136 -191t50.5 -267.5zM692 213q143 0 244.5 97.5t101.5 267.5
q0 124 -55 210l-399 -559q40 -16 108 -16zM346 578q0 -125 55 -211l400 559q-40 16 -109 16q-144 0 -245 -97t-101 -267z" />
    <glyph glyph-name="zero.tn" horiz-adv-x="1249" 
d="M1210 717q0 -348 -157 -547t-428 -199t-428.5 199t-157.5 547q0 347 157.5 546t428.5 199t428 -198.5t157 -546.5zM625 221q148 0 231.5 133.5t83.5 362.5t-83.5 362t-231.5 133t-232 -133t-84 -362t84 -362.5t232 -133.5z" />
    <glyph glyph-name="one.tn" horiz-adv-x="1249" 
d="M158 989v248q269 0 379 197h254v-1184h362v-250h-1016v250h383v852q-116 -113 -362 -113z" />
    <glyph glyph-name="two.tn" horiz-adv-x="1249" 
d="M141 193l545 534q92 90 130 154t38 139q0 93 -58.5 149t-160.5 56q-100 0 -161.5 -54t-61.5 -149q0 -49 18 -98l-262 -50q-27 68 -27 162q0 84 34.5 160.5t96.5 136t156.5 94.5t206.5 35q230 0 355.5 -114.5t125.5 -296.5q0 -141 -54.5 -246.5t-195.5 -241.5l-321 -313
h571v-250h-975v193z" />
    <glyph glyph-name="three.tn" horiz-adv-x="1249" 
d="M121 539l256 -62q-8 -19 -8 -59q0 -98 67 -156.5t176 -58.5q114 0 183 59t69 168q0 123 -100 180.5t-266 57.5v200q148 0 227.5 54t79.5 153q0 76 -54.5 122t-146.5 46q-93 0 -151 -44.5t-58 -121.5q0 -39 13 -69l-250 -56q-21 65 -21 113q0 79 32.5 150.5t91 127
t148.5 88.5t197 33q226 0 343.5 -96.5t117.5 -255.5q0 -113 -58 -197t-153 -124q123 -40 201 -131.5t78 -229.5q0 -208 -145.5 -332.5t-377.5 -124.5q-123 0 -222.5 36t-162 97t-96 139.5t-33.5 166.5q0 70 23 127z" />
    <glyph glyph-name="four.tn" horiz-adv-x="1249" 
d="M78 238v233l674 963h274v-947h145v-249h-145v-238h-270v238h-678zM756 1053l-402 -566h402v566z" />
    <glyph glyph-name="five.tn" horiz-adv-x="1249" 
d="M121 651l67 783h889v-250h-700l-35 -330q58 62 145.5 93.5t174.5 31.5q242 0 373.5 -131.5t131.5 -355.5q0 -109 -40 -205t-110.5 -165.5t-174 -110t-224.5 -40.5q-118 0 -216 34t-161 91.5t-97.5 130.5t-34.5 154q0 63 20 113l258 -62q-8 -19 -8 -53q0 -85 66.5 -131.5
t175.5 -46.5q126 0 201 76.5t75 214.5q0 128 -75.5 203t-200.5 75q-87 0 -162.5 -45t-126.5 -129z" />
    <glyph glyph-name="six.tn" horiz-adv-x="1249" 
d="M1092 991l-250 53q14 32 14 68q0 69 -52 105t-136 36q-74 0 -134 -37.5t-100 -102.5t-64.5 -147t-33.5 -178q66 69 155.5 109.5t190.5 40.5q215 0 352 -134t137 -343q0 -210 -152 -350t-380 -140q-257 0 -408 175.5t-151 486.5q0 265 84 471q72 173 202 265.5t302 92.5
q204 0 325 -99t121 -257q0 -60 -22 -115zM635 717q-117 0 -195 -70t-78 -192q0 -121 78 -191.5t195 -70.5t195.5 70.5t78.5 191.5q0 122 -78.5 192t-195.5 70z" />
    <glyph glyph-name="seven.tn" horiz-adv-x="1249" 
d="M1108 1196l-537 -1196h-270l533 1184h-693v250h967v-238z" />
    <glyph glyph-name="eight.tn" horiz-adv-x="1249" 
d="M625 -29q-236 0 -375 116.5t-139 309.5q0 130 64.5 226.5t180.5 144.5q-202 102 -202 317q0 166 130.5 271.5t340.5 105.5t340.5 -105.5t130.5 -271.5q0 -215 -203 -317q116 -48 181 -144.5t65 -226.5q0 -193 -139 -309.5t-375 -116.5zM625 193q109 0 180.5 64t71.5 163
t-71.5 163t-180.5 64t-180.5 -64t-71.5 -163t71.5 -163t180.5 -64zM412 1067q0 -92 62.5 -145.5t150.5 -53.5t150.5 53.5t62.5 145.5t-62 143.5t-151 51.5t-151 -51.5t-62 -143.5z" />
    <glyph glyph-name="nine.tn" horiz-adv-x="1249" 
d="M147 442l254 -55q-14 -38 -14 -65q0 -68 58 -105t143 -37q135 0 220.5 122t102.5 343q-110 -149 -329 -149q-225 0 -365.5 133.5t-140.5 343.5q0 211 149.5 350t382.5 139q274 0 416.5 -170.5t142.5 -490.5q0 -263 -86 -482q-66 -168 -195.5 -258t-305.5 -90
q-214 0 -332.5 101.5t-118.5 261.5q0 52 18 108zM614 717q111 0 191 71.5t80 190.5t-80 190.5t-191 71.5q-113 0 -194.5 -71.5t-81.5 -190.5t81.5 -190.5t194.5 -71.5z" />
    <glyph glyph-name="zero.tn.slash" horiz-adv-x="1249" 
d="M1210 717q0 -348 -157 -547t-428 -199t-428.5 199t-157.5 547q0 347 157.5 546t428.5 199t428 -198.5t157 -546.5zM309 717q0 -145 33 -248l418 707q-56 36 -135 36q-148 0 -232 -133t-84 -362zM625 221q148 0 231.5 133.5t83.5 362.5q0 145 -33 248l-418 -707
q58 -37 136 -37z" />
    <glyph glyph-name="zero.tosn" horiz-adv-x="1249" 
d="M1233 578q0 -149 -50.5 -267.5t-136 -191t-193 -110.5t-228.5 -38t-229 38t-194 110.5t-136 191t-50 267.5q0 120 33 220.5t90 171t134.5 119.5t166 72t185.5 23q121 0 228.5 -37.5t193 -110t136 -191t50.5 -267.5zM625 213q143 0 244.5 97.5t101.5 267.5t-101 267
t-245 97t-245 -97t-101 -267t101.5 -267.5t244.5 -97.5z" />
    <glyph glyph-name="one.tosn" horiz-adv-x="1249" 
d="M176 0v242h369v579q-96 -96 -332 -96v250q260 0 348 180h246v-913h303v-242h-934z" />
    <glyph glyph-name="two.tosn" horiz-adv-x="1249" 
d="M223 166l471 395q129 112 129 240q0 68 -44 112.5t-120 44.5q-81 0 -133.5 -48t-52.5 -126q0 -41 19 -92l-238 -47q-39 73 -39 160q0 161 121.5 270t314.5 109q200 0 315 -103t115 -268q0 -204 -209 -387l-208 -184h413v-242h-854v166z" />
    <glyph glyph-name="three.tosn" horiz-adv-x="1249" 
d="M154 360l247 -61q-8 -19 -8 -59q0 -98 63 -148.5t181 -50.5q229 0 229 197q0 202 -360 202v201q303 0 303 180q0 72 -53 109t-142 37q-92 0 -149 -44.5t-57 -121.5q0 -42 12 -70l-244 -41q-18 56 -18 113q0 161 125 271t329 110q208 0 331.5 -86t123.5 -242
q0 -103 -57 -177.5t-150 -115.5q53 -20 97.5 -47t84.5 -66t63 -93.5t23 -118.5q0 -197 -136 -309.5t-355 -112.5q-240 0 -373 116t-133 301q0 69 23 127z" />
    <glyph glyph-name="four.tosn" horiz-adv-x="1249" 
d="M100 82v233l652 840h262v-840h155v-233h-155v-238h-262v238h-652zM752 784l-365 -469h365v469z" />
    <glyph glyph-name="five.tosn" horiz-adv-x="1249" 
d="M150 451l65 704h846v-217h-649l-35 -291q122 125 319 125q211 0 335 -124.5t124 -342.5q0 -209 -142 -349t-388 -140q-113 0 -207.5 32.5t-156.5 88t-96 128t-34 152.5q0 67 21 113l243 -66q-6 -21 -6 -53q0 -74 69 -122t169 -48q125 0 197.5 70.5t72.5 199.5
q0 122 -72 191t-190 69q-92 0 -168 -46t-119 -126z" />
    <glyph glyph-name="six.tosn" horiz-adv-x="1249" 
d="M1075 877l-244 53q17 42 17 67q0 67 -44 104.5t-118 37.5q-85 0 -154.5 -62t-107.5 -155.5t-43 -198.5q117 133 311 133q199 0 327 -115t128 -321q0 -212 -135.5 -330.5t-362.5 -118.5q-114 0 -209 39.5t-166.5 117t-111 201t-39.5 281.5q0 146 38 277t108.5 232
t180 160.5t242.5 59.5q188 0 301 -87t113 -238q0 -73 -31 -137zM647 639q-105 0 -173 -61.5t-68 -165.5t68 -166t173 -62t173.5 62t68.5 166t-68.5 165.5t-173.5 61.5z" />
    <glyph glyph-name="seven.tosn" horiz-adv-x="1249" 
d="M1053 926l-408 -1082h-262l403 1069h-624v242h891v-229z" />
    <glyph glyph-name="eight.tosn" horiz-adv-x="1249" 
d="M625 -29q-223 0 -357.5 104t-134.5 300q0 117 66 201.5t172 128.5q-191 98 -191 284q0 156 117.5 253t327.5 97t327 -96.5t117 -253.5q0 -187 -190 -284q106 -44 171.5 -128.5t65.5 -201.5q0 -132 -63.5 -224t-172.5 -136t-255 -44zM625 180q105 0 172 56t67 149
q0 92 -66.5 146.5t-172.5 54.5t-173 -54.5t-67 -146.5q0 -93 67 -149t173 -56zM424 969q0 -83 57.5 -130.5t143.5 -47.5q85 0 142.5 47.5t57.5 130.5t-57.5 130.5t-142.5 47.5q-86 0 -143.5 -47.5t-57.5 -130.5z" />
    <glyph glyph-name="nine.tosn" horiz-adv-x="1249" 
d="M205 270l244 -53q-17 -42 -17 -67q0 -134 184 -134q127 0 205 120.5t78 295.5q-117 -133 -311 -133q-199 0 -327 115t-128 321q0 209 137 329t361 120q249 0 387.5 -159.5t138.5 -479.5q0 -207 -62.5 -370.5t-186.5 -261t-292 -97.5q-206 0 -324 83t-118 234q0 73 31 137
zM631 512q110 0 176.5 62t66.5 167t-67 167.5t-176 62.5t-174.5 -62.5t-65.5 -167.5t65.5 -167t174.5 -62z" />
    <glyph glyph-name="zero.tosn.slash" horiz-adv-x="1249" 
d="M1233 578q0 -149 -50.5 -267.5t-136 -191t-193 -110.5t-228.5 -38t-229 38t-194 110.5t-136 191t-50 267.5q0 120 33 220.5t90 171t134.5 119.5t166 72t185.5 23q121 0 228.5 -37.5t193 -110t136 -191t50.5 -267.5zM625 213q143 0 244.5 97.5t101.5 267.5q0 122 -56 210
l-399 -559q40 -16 109 -16zM279 578q0 -125 55 -211l399 559q-40 16 -108 16q-144 0 -245 -97t-101 -267z" />
    <glyph glyph-name="at.case" horiz-adv-x="1961" 
d="M1335 131l99 -166q-108 -69 -222 -102t-274 -33q-133 0 -255.5 31.5t-230.5 100t-187.5 167.5t-126 243.5t-46.5 319.5q0 149 44 287t127.5 251t197 197t259.5 130.5t308 46.5q130 0 250.5 -29t227 -90.5t185 -150t124 -215.5t45.5 -279q0 -182 -68 -330t-184.5 -230.5
t-255.5 -82.5q-93 0 -147 41.5t-54 113.5q0 11 2 25q-46 -78 -127.5 -129t-185.5 -51q-170 0 -271.5 120.5t-101.5 317.5q0 141 47 260.5t121.5 194t163 116t176.5 41.5q190 0 258 -133l16 100h197l-115 -741q-2 -18 -2 -33q0 -69 64 -69q94 0 171.5 126t77.5 341
q0 126 -38.5 230t-114.5 182t-197 121.5t-278 43.5q-143 0 -272.5 -54.5t-225 -150.5t-151.5 -234.5t-56 -297.5q0 -158 51 -285.5t139 -208t202 -123.5t245 -43q129 0 219.5 29.5t169.5 83.5zM870 371q128 0 221 128.5t93 329.5q0 240 -183 240q-125 0 -221 -129.5
t-96 -316.5q0 -122 52 -187t134 -65z" />
    <glyph glyph-name="braceleft.case" horiz-adv-x="808" 
d="M98 612v209q79 0 116.5 35t37.5 127v221q0 204 92 293.5t274 89.5h99v-241h-51q-80 0 -118 -42t-38 -137v-219q0 -101 -34.5 -152t-106.5 -79q72 -28 106.5 -79.5t34.5 -152.5v-219q0 -95 38 -136.5t118 -41.5h51v-242h-99q-182 0 -274 89.5t-92 293.5v222
q0 92 -37.5 126.5t-116.5 34.5z" />
    <glyph glyph-name="braceright.case" horiz-adv-x="808" 
d="M711 821v-209q-79 0 -116.5 -34.5t-37.5 -126.5v-222q0 -203 -93 -293t-274 -90h-98v242h51q80 0 118 41.5t38 136.5v219q0 101 34.5 152.5t106.5 79.5q-72 28 -106.5 79t-34.5 152v219q0 95 -38 137t-118 42h-51v241h98q181 0 274 -90t93 -293v-221q0 -92 37.5 -127
t116.5 -35z" />
    <glyph glyph-name="bracketleft.case" horiz-adv-x="710" 
d="M150 -154v1741h468v-241h-210v-1258h210v-242h-468z" />
    <glyph glyph-name="bracketright.case" horiz-adv-x="710" 
d="M561 1587v-1741h-469v242h211v1258h-211v241h469z" />
    <glyph glyph-name="bullet.case" horiz-adv-x="667" 
d="M88 717q0 103 71.5 174.5t174.5 71.5t174.5 -71.5t71.5 -174.5t-71.5 -174.5t-174.5 -71.5t-174.5 71.5t-71.5 174.5z" />
    <glyph glyph-name="exclamdown.case" horiz-adv-x="569" 
d="M420 500v-498h-270v498l32 510h205zM420 1436v-283h-270v283h270z" />
    <glyph glyph-name="guillemotleft.case" 
d="M866 1153h289l-340 -436l340 -436h-289l-342 436zM424 1153h289l-340 -436l340 -436h-289l-342 436z" />
    <glyph glyph-name="guillemotright.case" 
d="M350 281h-289l340 436l-340 436h289l342 -436zM793 281h-289l340 436l-340 436h289l342 -436z" />
    <glyph glyph-name="guilsinglleft.case" horiz-adv-x="774" 
d="M424 1155h289l-340 -438l340 -434h-289l-342 434z" />
    <glyph glyph-name="guilsinglright.case" horiz-adv-x="774" 
d="M61 1155h289l342 -438l-342 -434h-289l340 434z" />
    <glyph glyph-name="parenleft.case" horiz-adv-x="737" 
d="M582 -152h-232q-221 398 -221 869q0 470 221 868h232q-83 -151 -137 -401.5t-54 -466.5q0 -217 53.5 -470t137.5 -399z" />
    <glyph glyph-name="parenright.case" horiz-adv-x="737" 
d="M387 -152h-231q84 146 137 399t53 470q0 216 -53.5 467t-136.5 401h231q221 -398 221 -868q0 -471 -221 -869z" />
    <glyph glyph-name="questiondown.case" horiz-adv-x="1124" 
d="M453 1008h258v-33q0 -95 -37.5 -163t-138.5 -148q-105 -83 -147 -145.5t-42 -139.5q0 -79 59 -126.5t154 -47.5q98 0 165 55t67 148q0 32 -15 75l236 49q28 -61 28 -147q0 -77 -33.5 -151t-93 -132.5t-150.5 -94.5t-198 -36q-219 0 -346 107t-127 282q0 122 56 217.5
t208 223.5q55 47 76 93t21 114zM717 1434v-283h-271v283h271z" />
    </font>
</defs>
</svg>
